<?xml version="1.0" standalone="no"?>
<!DOCTYPE svg PUBLIC "-//W3C//DTD SVG 1.1//EN" "http://www.w3.org/Graphics/SVG/1.1/DTD/svg11.dtd" >
<svg>
<metadata>
Created by FontForge 20090622 at Wed Jan 18 16:48:25 2017
 By ffonts
\2512003 Prescott Design. All rights reserved.
</metadata>
<defs>
<font id="ClementePDam-Bold" horiz-adv-x="602" >
  <font-face 
    font-family="ClementePDam"
    font-weight="700"
    font-stretch="normal"
    units-per-em="1000"
    panose-1="0 0 0 0 0 0 0 0 0 0"
    ascent="800"
    descent="-200"
    x-height="518"
    cap-height="720"
    bbox="-301 -223 1053 958"
    underline-thickness="80"
    underline-position="26"
    unicode-range="U+000D-U+FB02"
  />
<missing-glyph horiz-adv-x="320" 
 />
    <glyph glyph-name=".notdef" horiz-adv-x="320" 
 />
    <glyph glyph-name="Eth" horiz-adv-x="666" 
d="M459 363q0 48 -12.5 88t-38 68t-63.5 43.5t-88 15.5h-33v-158h129v-97h-129v-181h39q51 0 88 17t61 46.5t35.5 70t11.5 87.5zM629 361q0 -86 -23.5 -153t-69 -113t-112.5 -70.5t-153 -24.5h-217v323h-56v96h56v301h257q82 0 142 -27.5t99 -76t58 -114t19 -141.5z" />
    <glyph glyph-name="Eth" horiz-adv-x="666" 
d="M459 363q0 48 -12.5 88t-38 68t-63.5 43.5t-88 15.5h-33v-158h129v-97h-129v-181h39q51 0 88 17t61 46.5t35.5 70t11.5 87.5zM629 361q0 -86 -23.5 -153t-69 -113t-112.5 -70.5t-153 -24.5h-217v323h-56v96h56v301h257q82 0 142 -27.5t99 -76t58 -114t19 -141.5z" />
    <glyph glyph-name="nonmarkingreturn" unicode="&#xd;" horiz-adv-x="0" 
 />
    <glyph glyph-name="space" unicode=" " horiz-adv-x="320" 
 />
    <glyph glyph-name="eth" unicode="&#xf0;" horiz-adv-x="614" 
d="M424 251q0 28 -6.5 54.5t-20.5 47t-36 33t-54 12.5t-54.5 -12.5t-36.5 -33t-20 -47t-6 -54.5t6 -55t19.5 -48.5t36 -34.5t54.5 -13t54.5 13t36.5 34.5t20.5 48.5t6.5 55zM577 285q0 -65 -17 -119.5t-50.5 -94t-84.5 -62t-119 -22.5q-61 0 -110.5 17.5t-85 51t-54.5 82
t-19 110.5q0 54 17 100t48.5 79t76.5 52t100 19q29 0 58.5 -7.5t51.5 -24.5q-19 30 -45.5 57.5t-53.5 50.5l-77 -42l-58 62l62 35q-11 11 -22 20t-24 17l110 65q3 -2 11.5 -7t17.5 -11.5l17 -12.5t11 -8l69 39l61 -62l-62 -34q75 -70 123 -157.5t48 -192.5z" />
    <glyph glyph-name="Lslash" unicode="&#x141;" 
d="M602 144q0 -26 -4 -52t-18 -46.5t-40 -33t-69 -12.5h-417v217l-54 -38v104l54 37v400h170v-283l166 115v-103l-166 -115v-192h199q40 0 54 14t14 46l111 -58v0z" />
    <glyph glyph-name="lslash" unicode="&#x142;" horiz-adv-x="262" 
d="M208 409v-409h-154v290l-54 -43v82l54 43v348h153v-229l55 43v-82z" />
    <glyph glyph-name="Scaron" unicode="&#x160;" horiz-adv-x="638" 
d="M627 218q0 -65 -27 -110t-70.5 -72.5t-98 -40t-110.5 -12.5q-25 0 -58 4t-67.5 15t-67.5 29t-59 47t-42 69t-16 94h170q0 -73 42.5 -104t111.5 -31q21 0 42.5 5t39 16t29 29.5t11.5 44.5q0 24 -11 39t-33.5 26.5t-55.5 21l-78 21.5l-86 25t-77.5 34.5t-56.5 55.5t-22 88
q0 60 23.5 102.5t62.5 70t89 40t102 12.5q57 0 107.5 -12t89.5 -39.5t63 -71.5t27 -108h-162q2 29 -8.5 49.5t-28.5 33.5t-41.5 19t-47.5 6q-18 0 -38.5 -3.5t-37.5 -12.5t-28 -24.5t-11 -38.5q1 -27 20 -43.5t49.5 -28t69 -20.5l78.5 -19q41 -11 79 -25.5t67.5 -37.5
t47.5 -57.5t18 -85.5zM386 771h-127l-120 147h116l67 -88l68 88h115z" />
    <glyph glyph-name="scaron" unicode="&#x161;" horiz-adv-x="537" 
d="M514 160q0 -50 -22 -83t-57 -53t-78.5 -28.5t-87.5 -8.5q-47 0 -91 10t-78 32.5t-55 57.5t-22 85h147q2 -46 31 -67t73 -21q15 0 31 3t29.5 10t22.5 18.5t9 28.5t-7 28t-22 19t-39 14t-58 12q-50 9 -88 21.5t-63.5 31t-38.5 44t-13 60.5q0 42 20 72t52 49t73 27.5t82 8.5
q42 0 84 -7.5t75 -26.5t54 -51t23 -80h-140q-1 19 -8.5 33.5t-20.5 24t-29 14.5t-34 5q-43 0 -63.5 -17t-20.5 -40q0 -21 24 -34.5t56 -22.5t65 -14.5t50 -10.5q26 -8 50.5 -19t43 -27.5t30 -40.5t11.5 -57zM333 575h-127l-119 146h115l68 -88l67 88h116z" />
    <glyph glyph-name="Yacute" unicode="&#xdd;" 
d="M548 535q0 -98 -41 -155.5t-121 -75.5v-304h-170v304q-162 38 -162 231v185h170v-169q0 -21 2.5 -43t10.5 -40t23 -30t41 -12t41 12t23 30.5t10.5 40.5t2.5 42v169h170v-185v0zM288 770h-106l107 148h164z" />
    <glyph glyph-name="yacute" unicode="&#xfd;" horiz-adv-x="611" 
d="M557 15q0 -42 -10 -84.5t-37.5 -76.5t-77.5 -55.5t-131 -21.5q-45 0 -88 7.5t-77.5 27t-58 52.5t-29.5 83h152q7 -33 35 -55t61 -22q30 0 50 12t33 31.5t18.5 43.5t5.5 48v69q-30 -47 -71.5 -67t-98.5 -20q-40 0 -73 12.5t-56.5 36t-36.5 56t-13 73.5v353h153v-289
q0 -23 4 -44.5t14 -38t27.5 -26t44.5 -9.5q28 0 48 10.5t33 28t19 40.5t6 49v279h154v-504v1zM292 573h-106l107 148h164z" />
    <glyph glyph-name="Thorn" unicode="&#xde;" horiz-adv-x="605" 
d="M407 388q0 29 -9.5 47.5t-26.5 29.5t-40.5 15t-50.5 4h-56v-196h46q27 0 51.5 4t43.5 15t30.5 30.5t11.5 50.5zM568 394q0 -60 -20 -105t-55 -75t-84.5 -44.5t-107.5 -14.5h-77v-155h-170v720h170v-94h93q67 0 115 -21t78 -54t44 -74.5t14 -82.5z" />
    <glyph glyph-name="thorn" unicode="&#xfe;" horiz-adv-x="671" 
d="M480 256q0 35 -8 64.5t-25 51.5t-45.5 34t-68.5 12q-18 0 -39.5 -6t-41 -17.5t-32.5 -27.5t-13 -36v-132q0 -24 12.5 -42t31 -31t41.5 -19.5t44 -6.5q76 0 110 42t34 114zM634 256q0 -59 -20 -108.5t-56 -85t-85 -55.5t-107 -20q-48 0 -88.5 14.5t-69.5 40.5v-248h-154
v926h153v-240q31 26 71 38.5t85 12.5q60 0 109.5 -20.5t85.5 -57t56 -87t20 -110.5z" />
    <glyph glyph-name="Zcaron" unicode="&#x17d;" horiz-adv-x="636" 
d="M639 144q0 -26 -4 -52t-18 -46.5t-40 -33t-70 -12.5h-489v136l379 442h-353v142h575v-127l-381 -451h222q39 0 53 14t14 46l112 -58v0zM391 771h-126l-120 147h115l68 -88l68 88h115z" />
    <glyph glyph-name="zcaron" unicode="&#x17e;" horiz-adv-x="519" 
d="M519 118q0 -22 -3.5 -43t-15 -37.5t-33 -27t-57.5 -10.5h-396v121l272 284h-249v113h445v-120l-268 -285h159q34 0 45.5 12.5t11.5 38.5l89 -46v0zM323 575h-127l-119 146h115l68 -88l67 88h116z" />
    <glyph glyph-name="onehalf" unicode="&#xbd;" horiz-adv-x="805" 
d="M789 82q1 -38 -14.5 -60t-59.5 -22h-265q-2 37 11.5 66t36 52t51 42l56.5 36q22 14 43 31.5t21 42.5q0 24 -14.5 39t-39.5 15q-37 0 -51 -26t-13 -65h-93q-4 79 38.5 124.5t119.5 45.5q29 0 56.5 -7t48.5 -22t34 -38.5t13 -56.5q0 -37 -18.5 -64.5t-45 -50t-55.5 -42
t-50 -39.5h91q19 0 24 7t5 28l70 -36v0zM214 0h-87l394 720h88zM140 324v307h-7q-14 0 -17.5 -9t-3.5 -26l-75 37q0 16 2.5 31.5t10.5 28t24 20t42 7.5h131v-396h-107z" />
    <glyph glyph-name="onequarter" unicode="&#xbc;" horiz-adv-x="802" 
d="M564 291l-94 -114h94v114zM765 176q0 -15 -2.5 -29.5t-10 -26.5t-22.5 -19t-40 -7h-24v-94h-102v94h-175v86l181 216h96v-219h7q14 0 18 8.5t4 25.5l70 -35v0zM214 0h-87l394 720h88zM140 324v307h-7q-14 0 -17.5 -9t-3.5 -26l-75 37q0 16 2.5 31.5t10.5 28t24 20t42 7.5
h131v-396h-107z" />
    <glyph glyph-name="onesuperior" unicode="&#xb9;" horiz-adv-x="301" 
d="M140 324v307h-7q-14 0 -17.5 -9t-3.5 -26l-75 37q0 16 2.5 31.5t10.5 28t24 20t42 7.5h131v-396h-107z" />
    <glyph glyph-name="threequarters" unicode="&#xbe;" horiz-adv-x="865" 
d="M626 291l-93 -114h93v114zM828 176q0 -15 -2.5 -29.5t-10.5 -26.5t-22.5 -19t-39.5 -7h-25v-94h-102v94h-175v86l182 216h95v-219h8q14 0 17.5 8.5t3.5 25.5l71 -35v0zM277 0h-88l394 720h89zM353 448q0 -32 -14 -55.5t-37 -39t-51.5 -23t-56.5 -7.5q-35 0 -67 9
t-55.5 28.5t-36 49.5t-8.5 71h94q-3 -80 70 -80q26 0 43 14t17 40q0 25 -16 37t-42 12h-17v66h17q23 0 40 10.5t17 32.5q0 20 -18 31t-39 11q-28 0 -46 -17t-16 -49h-94q0 37 12.5 64.5t34 44.5t50 25.5t61.5 8.5q22 0 48 -6t48 -19t36.5 -32.5t14.5 -47.5q0 -19 -9 -45
t-33 -39q27 -12 40 -40.5t13 -54.5z" />
    <glyph glyph-name="threesuperior" unicode="&#xb3;" horiz-adv-x="381" 
d="M353 448q0 -32 -14 -55.5t-37 -39t-51.5 -23t-56.5 -7.5q-35 0 -67 9t-55.5 28.5t-36 49.5t-8.5 71h94q-3 -80 70 -80q26 0 43 14t17 40q0 25 -16 37t-42 12h-17v66h17q23 0 40 10.5t17 32.5q0 20 -18 31t-39 11q-28 0 -46 -17t-16 -49h-94q0 37 12.5 64.5t34 44.5
t50 25.5t61.5 8.5q22 0 48 -6t48 -19t36.5 -32.5t14.5 -47.5q0 -19 -9 -45t-33 -39q27 -12 40 -40.5t13 -54.5z" />
    <glyph glyph-name="twosuperior" unicode="&#xb2;" horiz-adv-x="385" 
d="M369 412q0 -38 -15.5 -60.5t-59.5 -22.5h-264q-2 37 11 66t35.5 52t51 42l56.5 36q22 14 43 32t21 42t-14 39t-40 15q-37 0 -50.5 -26t-12.5 -65h-94q-4 79 39 124.5t119 45.5q29 0 56.5 -7t49 -22t34.5 -38.5t13 -56.5q0 -37 -18.5 -64.5t-45 -50t-55.5 -41.5t-50 -39
h91q18 0 23.5 7t4.5 27l71 -35v0z" />
    <glyph glyph-name="brokenbar" unicode="&#xa6;" horiz-adv-x="228" 
d="M54 0v264h120v-264h-120zM54 456v264h120v-264h-120z" />
    <glyph glyph-name="minus" unicode="&#x2212;" horiz-adv-x="595" 
d="M45 300v120h505v-120h-505z" />
    <glyph glyph-name="multiply" unicode="&#xd7;" horiz-adv-x="476" 
d="M390 122l-152 154l-153 -154l-85 85l153 153l-153 153l84 85l153 -154l154 154l85 -84l-154 -154l154 -153z" />
    <glyph glyph-name="exclam" unicode="!" horiz-adv-x="262" 
d="M225 69q0 -18 -8 -33t-21.5 -25.5t-30.5 -16.5t-34 -6t-34 6t-30.5 16.5t-21.5 25.5t-8 33q0 19 8 34t21.5 25.5t30.5 16t34 5.5t34 -5.5t30.5 -16t21.5 -25.5t8 -34zM170 189h-78l-51 531h179z" />
    <glyph glyph-name="quotedbl" unicode="&#x22;" horiz-adv-x="402" 
d="M54 379v341h120v-341h-120zM228 379v341h120v-340z" />
    <glyph glyph-name="numbersign" unicode="#" horiz-adv-x="513" 
d="M216 408l-13 -96h95l13 96h-95zM500 408h-95l-13 -95h95l-13 -93h-95l-31 -220h-94l31 220h-95l-31 -220h-95l31 220h-95l13 92h95l13 95h-95l13 93h95l31 220h95l-31 -220h95l31 220h94l-31 -220h95z" />
    <glyph glyph-name="dollar" unicode="$" horiz-adv-x="537" 
d="M514 261q0 -44 -17 -75t-45.5 -51t-64.5 -31t-75 -14v-90h-92v92q-41 4 -76.5 17t-62 35t-42 54t-16.5 75h147q2 -46 31 -67t73 -21q15 0 31 3t29.5 10.5t22.5 18.5t9 28t-7 28t-22 19t-39 14t-58 12q-50 9 -88 22t-63.5 31.5t-38.5 44t-13 60.5t14.5 62t39 46t57.5 30.5
t71 14.5v91h93v-91q37 -3 70.5 -13.5t59 -29.5t41.5 -48t17 -70h-140q-1 19 -8.5 33t-20.5 23.5t-29 14.5t-34 5q-43 0 -63.5 -17t-20.5 -40q0 -21 24 -34.5t56 -22.5t65 -14.5t50 -10.5q26 -8 50.5 -19t43 -27.5t30 -40.5t11.5 -57z" />
    <glyph glyph-name="percent" unicode="%" horiz-adv-x="798" 
d="M659 173q0 21 -2.5 42t-10 37t-21 26t-34.5 10q-22 0 -35 -10t-20.5 -26.5t-10 -37t-2.5 -41.5t2.5 -41.5t10 -37t20.5 -26.5t34 -10t34.5 10t21 26.5t10.5 37t3 41.5zM761 173q0 -40 -10 -74t-31 -58.5t-53 -38.5t-76 -14q-45 0 -77 14t-53 38.5t-31 58.5t-10 74
t10 74.5t31 59t53 38.5t76 14t76.5 -14t53.5 -38.5t31 -59t10 -74.5zM275 534q0 21 -2.5 42t-10 37.5t-20.5 26.5t-35 10q-21 0 -34.5 -10t-21 -26.5t-10 -37.5t-2.5 -42q0 -20 2.5 -40.5t10 -37t21 -26.5t34.5 -10t34.5 10t21 26.5t10 37t2.5 40.5zM238 0h-89l371 650h-176
q17 -22 25.5 -51t8.5 -64q0 -40 -10.5 -74t-31.5 -59t-53 -39t-76 -14t-76 14t-53 39t-31 59t-10 73q0 41 10 75t31 59t53 38.5t76 13.5h402v-70z" />
    <glyph glyph-name="ampersand" unicode="&#x26;" horiz-adv-x="819" 
d="M819 396q0 -25 -4 -49t-17 -43t-37.5 -31t-65.5 -12h-18q7 -73 -18 -124.5t-72.5 -84.5t-111.5 -48.5t-136 -15.5q-60 0 -117.5 13t-103 40.5t-73.5 69.5t-28 100q0 28 8 58t24 55.5t40 43t56 19.5q-31 4 -52 22t-33.5 41.5t-17.5 49.5t-5 47q0 48 25 82.5t63 57.5
t82.5 34t84.5 11q58 0 108.5 -15t87.5 -45t58 -76t22 -108h-147q1 28 -8 51t-25.5 39t-40 25t-50.5 9q-20 0 -41 -5.5t-38 -17t-27.5 -28.5t-10.5 -40q0 -24 10 -42t26.5 -29t37.5 -16.5t43 -5.5h19v-100h-19q-50 0 -84.5 -25.5t-34.5 -78.5q0 -27 16.5 -48.5t41 -35.5
t54 -21.5t55.5 -7.5q36 0 70 10.5t60 30t41 47t14 62.5h-23q-38 0 -51 -13.5t-13 -43.5l-104 55q0 24 4 48.5t17 43.5t37.5 31t65.5 12h188q38 0 51.5 13t13.5 43l103 -54v0z" />
    <glyph glyph-name="quotesingle" unicode="'" horiz-adv-x="228" 
d="M54 379v341h120v-340z" />
    <glyph glyph-name="parenleft" unicode="(" horiz-adv-x="280" 
d="M147 -206q-55 114 -82.5 224.5t-27.5 237.5q0 244 110 464h133q-48 -114 -72 -227t-24 -237q0 -125 24 -236.5t73 -225.5h-134z" />
    <glyph glyph-name="parenright" unicode=")" horiz-adv-x="280" 
d="M244 258q0 -244 -110 -464h-134q49 114 72.5 227t23.5 237t-24 236t-72 226h133q27 -57 48 -112.5t35 -112t21 -115.5t7 -122z" />
    <glyph glyph-name="asterisk" unicode="*" horiz-adv-x="390" 
d="M260 510l85 -103l-78 -58l-72 114l-72 -114l-79 58l86 103l-130 33l30 93l125 -50l-9 134h98l-9 -134l125 50l30 -93z" />
    <glyph glyph-name="plus" unicode="+" horiz-adv-x="595" 
d="M357 300v-193h-119v193h-193v120h192v193h120v-193h193v-120h-193z" />
    <glyph glyph-name="comma" unicode="," horiz-adv-x="274" 
d="M104 -178l-104 60l170 295l104 -60z" />
    <glyph glyph-name="hyphen" unicode="-" horiz-adv-x="369" 
d="M45 203v128h279v-128h-279z" />
    <glyph glyph-name="period" unicode="." horiz-adv-x="262" 
d="M225 69q0 -18 -8 -33t-21.5 -25.5t-30.5 -16.5t-34 -6t-34 6t-30.5 16.5t-21.5 25.5t-8 33q0 19 8 34t21.5 25.5t30.5 16t34 5.5t34 -5.5t30.5 -16t21.5 -25.5t8 -34z" />
    <glyph glyph-name="slash" unicode="/" horiz-adv-x="399" 
d="M119 0h-119l280 720h119z" />
    <glyph glyph-name="zero" unicode="0" horiz-adv-x="708" 
d="M490 360q0 34 -4.5 77.5t-19 82.5t-41.5 65.5t-73 26.5q-47 0 -74.5 -26.5t-41.5 -65t-18.5 -82t-4.5 -78.5t4.5 -78.5t18.5 -82t41.5 -65t73.5 -26.5t73.5 26.5t42 65t19 82t4.5 78.5zM638 360q0 -66 -17 -132t-52 -119.5t-89 -87t-128 -33.5q-75 0 -129 33.5t-89 87
t-52 119.5t-17 132q0 65 17 131.5t52 120t89 87t128 33.5q75 0 129 -33.5t89 -86.5t52 -119.5t17 -132.5z" />
    <glyph glyph-name="one" unicode="1" horiz-adv-x="708" 
d="M271 0v578h-8q-40 0 -54 -14t-14 -46l-111 58q0 26 4 52t18 46.5t39.5 33t69.5 12.5h226v-720h-170z" />
    <glyph glyph-name="two" unicode="2" horiz-adv-x="708" 
d="M649 135q0 -31 -5.5 -56t-19.5 -42.5t-38 -27t-60 -9.5h-470q-3 63 22 113.5t65.5 92t91 75.5l97.5 64q21 13 42.5 29t39.5 34.5t29.5 40t11.5 45.5q0 50 -29.5 82.5t-81.5 32.5q-38 0 -63 -15t-39.5 -39t-20.5 -55t-5 -63h-146q-3 67 14.5 121.5t53.5 93t88.5 59.5
t119.5 21q52 0 99.5 -12.5t84.5 -39.5t59 -68.5t22 -99.5q0 -39 -12 -73t-32.5 -63.5t-48 -54.5t-57.5 -47l-101.5 -71.5t-83.5 -70.5h205q37 0 51.5 13.5t13.5 43.5l103 -54v0z" />
    <glyph glyph-name="three" unicode="3" horiz-adv-x="708" 
d="M636 211q0 -56 -24.5 -98t-63.5 -70t-88.5 -41.5t-100.5 -13.5q-63 0 -119 16.5t-97 50.5t-62.5 85.5t-15.5 120.5h148q-3 -70 32 -110t107 -40q52 0 87.5 29t35.5 83t-34.5 79.5t-84.5 25.5h-19v100h19q22 0 43 5.5t37.5 16.5t26.5 29t10 42q0 23 -10.5 40t-27.5 28.5
t-38 17t-41 5.5q-27 0 -50.5 -9t-40.5 -25t-26 -39t-8 -51h-146q1 62 22 108t58 76t87 45t109 15q40 0 84.5 -11t82.5 -33.5t63 -57.5t25 -82q0 -21 -5.5 -47.5t-18 -50t-33 -41.5t-51.5 -22q32 -2 56 -19.5t40 -43t24 -55.5t8 -58z" />
    <glyph glyph-name="four" unicode="4" horiz-adv-x="708" 
d="M349 569l-209 -261h209v261zM691 311q0 -25 -4 -49t-17 -43t-37.5 -31t-65.5 -12h-57v-176h-161v176h-318v147l323 397h156v-412h13q38 0 51 13.5t13 43.5l104 -54v0z" />
    <glyph glyph-name="five" unicode="5" horiz-adv-x="708" 
d="M557 531q1 35 -15.5 46t-48.5 11h-232l-38 -179q32 30 75.5 44t88.5 14q54 0 96.5 -17t72 -48t45 -74.5t15.5 -96.5q0 -63 -24.5 -108.5t-65.5 -75.5t-93.5 -44.5t-109.5 -14.5q-50 0 -102 13t-93.5 41t-66.5 71t-21 103h153q6 -55 44.5 -80t89.5 -25q28 0 52.5 8.5
t42.5 25t28.5 39.5t10.5 52q0 58 -35.5 92t-93.5 34q-38 0 -70.5 -13t-52.5 -47h-146l79 418h395q70 0 97 -35t27 -100z" />
    <glyph glyph-name="six" unicode="6" horiz-adv-x="708" 
d="M502 248q0 29 -11.5 53.5t-30.5 42t-44.5 27.5t-53.5 10t-52.5 -10t-43 -28t-29 -42.5t-10.5 -52.5q0 -29 10.5 -53.5t28.5 -43t42.5 -29t53.5 -10.5t54.5 10.5t44.5 28.5t30 43t11 54zM645 251q0 -63 -21.5 -112t-59.5 -82.5t-90 -51t-112 -17.5q-77 0 -135 29.5
t-95 80.5q-35 48 -49.5 109t-14.5 128q0 75 16 146.5t53 127t96.5 89.5t145.5 34q40 0 80.5 -7.5t75.5 -28.5l-86 -95q-17 11 -35.5 14.5t-38.5 3.5q-43 0 -72 -20t-47.5 -50.5t-28 -68t-12.5 -72.5q0 -3 -0.5 -8t-0.5 -8q34 48 81.5 70.5t107.5 22.5q52 0 96 -17t76.5 -48
t51 -74t18.5 -95z" />
    <glyph glyph-name="seven" unicode="7" horiz-adv-x="708" 
d="M421 0h-173l182 588h-188q-38 0 -51 -13.5t-13 -43.5l-104 54q0 25 4 49t17 43t37.5 31t65.5 12h405v-132z" />
    <glyph glyph-name="eight" unicode="8" horiz-adv-x="708" 
d="M486 215q0 30 -10 52.5t-28 37.5t-42 22.5t-51 7.5q-28 0 -52.5 -7.5t-43 -22.5t-29 -37.5t-10.5 -52.5q0 -27 11.5 -47.5t30 -34t42.5 -20.5t49 -7t48.5 7t42.5 20.5t30.5 34t11.5 47.5zM467 525q0 26 -9 44.5t-24.5 30.5t-36 17.5t-44.5 5.5q-47 0 -79 -23.5t-32 -74.5
q0 -23 9.5 -40.5t24.5 -29t35 -17.5t41 -6q22 0 42.5 5.5t36.5 16.5t26 29t10 42zM640 215q0 -59 -25.5 -102t-66.5 -71t-92 -41t-103 -13q-53 0 -104.5 12.5t-92 40t-65 70.5t-24.5 104q0 72 38 115t105 57q-54 17 -80.5 57.5t-26.5 96.5q0 52 22.5 88t58.5 59t80.5 33.5
t88.5 10.5q43 0 88 -11t82 -34t60 -59t23 -87q0 -26 -7.5 -50.5t-21 -45t-34 -36t-45.5 -22.5q32 -5 58 -20.5t45 -38.5t29 -52t10 -61z" />
    <glyph glyph-name="nine" unicode="9" horiz-adv-x="708" 
d="M478 472q0 28 -10.5 53t-28.5 43.5t-42.5 29t-52.5 10.5q-29 0 -54.5 -10.5t-44.5 -28.5t-30 -43t-11 -54t11 -53.5t30.5 -42t44.5 -27.5t54 -10q28 0 52.5 10t42.5 28t28.5 42.5t10.5 52.5zM637 385q0 -75 -16 -146.5t-53 -127t-96 -89.5t-145 -34q-41 0 -81.5 7.5
t-75.5 28.5l86 95q17 -11 35.5 -14.5t38.5 -3.5q43 0 72 19.5t47.5 50.5t28 68.5t12.5 72.5q0 3 0.5 8t0.5 8q-34 -48 -81.5 -71t-107.5 -23q-52 0 -96 17t-76.5 48t-51 74t-18.5 96q0 63 21.5 112t59.5 82.5t90 51t113 17.5q76 0 134.5 -29.5t95.5 -80.5q34 -48 48.5 -109
t14.5 -128z" />
    <glyph glyph-name="colon" unicode=":" horiz-adv-x="262" 
d="M225 69q0 -18 -8 -33t-21.5 -25.5t-30.5 -16.5t-34 -6t-34 6t-30.5 16.5t-21.5 25.5t-8 33q0 19 8 34t21.5 25.5t30.5 16t34 5.5t34 -5.5t30.5 -16t21.5 -25.5t8 -34zM225 449q0 -19 -8 -34t-21.5 -25.5t-30.5 -16.5t-34 -6t-34 6t-30.5 16.5t-21.5 25.5t-8 34q0 18 8 33
t21.5 25.5t30.5 16.5t34 6t34 -6t30.5 -16.5t21.5 -25.5t8 -33z" />
    <glyph glyph-name="semicolon" unicode=";" horiz-adv-x="262" 
d="M104 -178l-104 60l170 295l104 -60zM225 449q0 -19 -8 -34t-21.5 -25.5t-30.5 -16.5t-34 -6t-34 6t-30.5 16.5t-21.5 25.5t-8 34q0 18 8 33t21.5 25.5t30.5 16.5t34 6t34 -6t30.5 -16.5t21.5 -25.5t8 -33z" />
    <glyph glyph-name="less" unicode="&#x3c;" horiz-adv-x="596" 
d="M45 309v101l506 211v-126l-327 -135l327 -135v-126z" />
    <glyph glyph-name="equal" unicode="=" horiz-adv-x="595" 
d="M45 185v120h505v-120h-505zM45 415v120h505v-120h-505z" />
    <glyph glyph-name="greater" unicode="&#x3e;" horiz-adv-x="596" 
d="M45 99v126l327 135l-327 135v126l506 -210v-101z" />
    <glyph glyph-name="question" unicode="?" horiz-adv-x="586" 
d="M377 69q0 -18 -8 -33t-21.5 -25.5t-30.5 -16.5t-34 -6t-33.5 6t-30 16.5t-21.5 25.5t-8 33q0 19 8 34t21.5 25.5t30 16t33.5 5.5t34 -5.5t30.5 -16t21.5 -25.5t8 -34zM548 535q1 -44 -10.5 -72.5t-30.5 -47.5t-41.5 -32.5l-43.5 -26.5q-20 -13 -33 -25t-20.5 -25.5
t-10.5 -29.5t-3 -38v-63h-143v62q0 20 1 44.5t8.5 49.5t22.5 49t44 42q10 7 26 15t31.5 20t26.5 28t11 39q0 36 -23.5 55.5t-64.5 19.5q-52 0 -76 -34.5t-20 -84.5h-162q1 48 17 93.5t47.5 80.5t80.5 56t118 21q65 0 111.5 -17.5t77 -45.5t45 -63t15.5 -70h-1z" />
    <glyph glyph-name="at" unicode="@" horiz-adv-x="810" 
d="M507 387q-2 35 -27 57.5t-61 22.5q-27 0 -49 -13t-38 -34t-25 -46.5t-9 -49.5q0 -35 21.5 -61.5t58.5 -26.5q67 0 99 56q6 17 14 44.5t16 50.5zM773 432q0 -79 -31 -141q-20 -39 -52.5 -71.5t-77.5 -54.5q-20 -11 -43.5 -18t-46.5 -7q-20 0 -36.5 10t-21.5 30q0 4 -0.5 7
t-0.5 7q-19 -29 -48 -41.5t-62 -12.5q-37 0 -67 13.5t-51 37t-32 54.5t-11 67q0 46 15 91.5t43.5 80.5t69 57t90.5 22q38 0 72 -16t54 -50l14 48h76l-55 -211l-10.5 -41t-5.5 -42q0 -10 5 -19t17 -9t23.5 4.5t20.5 11.5q19 14 32 34t21 42.5t12 46.5t4 47q0 61 -21 106
t-57 75t-85 45t-106 15q-62 0 -117 -21.5t-96 -60t-64.5 -91.5t-23.5 -117q0 -65 22.5 -118t62.5 -91.5t94.5 -59.5t118.5 -21q65 0 122 19.5t105 63.5h90q-55 -85 -136 -125t-181 -40q-81 0 -151 27t-121 76.5t-80 117.5t-29 151q0 85 29 153.5t81 117t122.5 75t153.5 26.5
q68 0 131 -19t112 -56.5t78 -94t29 -130.5z" />
    <glyph glyph-name="A" unicode="A" 
d="M378 479q0 21 -2.5 43t-10.5 40t-23.5 30t-40.5 12q-26 0 -41 -12t-23 -30t-10.5 -40t-2.5 -43v-53h154v53zM378 0v294h-154v-294h-170v495q0 122 63 182t184 60q124 0 185.5 -61t61.5 -180v-496h-170z" />
    <glyph glyph-name="B" unicode="B" 
d="M395 228q0 47 -29 70t-79 23h-63v-189h55q23 0 44 5t37 16.5t25.5 29.5t9.5 45zM372 510q0 41 -28.5 59.5t-73.5 18.5h-46v-163h46q44 0 72.5 20t28.5 65h1zM565 213q0 -53 -20.5 -92.5t-54.5 -66.5t-78.5 -40.5t-92.5 -13.5h-265v720h257q43 0 83.5 -10t71 -31.5
t49 -55.5t18.5 -82q0 -54 -27.5 -92t-76.5 -57q66 -17 101 -64t35 -115z" />
    <glyph glyph-name="C" unicode="C" horiz-adv-x="746" 
d="M709 280q-2 -66 -28 -121t-69 -94t-100.5 -60.5t-122.5 -21.5q-83 0 -148 29t-110.5 79t-69.5 118.5t-24 148.5q0 81 24 150.5t70 120t111.5 79.5t149.5 29q64 0 119.5 -17.5t97.5 -51.5t68 -84.5t32 -116.5h-166q-4 30 -17.5 54t-34.5 41.5t-47.5 27t-55.5 9.5
q-50 0 -84 -22t-56 -56.5t-31.5 -77t-9.5 -84.5t9.5 -84t30.5 -76.5t55 -56t83 -21.5q36 0 63.5 12.5t46.5 34t31 50.5t17 62h166v0z" />
    <glyph glyph-name="D" unicode="D" horiz-adv-x="666" 
d="M459 363q0 48 -12.5 88t-38 68t-63.5 43.5t-88 15.5h-33v-436h39q51 0 88 17t61 46.5t35.5 70t11.5 87.5zM629 361q0 -86 -23.5 -153t-69 -113t-112.5 -70.5t-153 -24.5h-217v720h257q82 0 142 -27.5t99 -76t58 -114t19 -141.5z" />
    <glyph glyph-name="E" unicode="E" 
d="M54 0v720h494v-142h-324v-152h292v-132h-292v-152h333v-142h-503z" />
    <glyph glyph-name="F" unicode="F" 
d="M224 578v-152h292v-132h-292v-294h-170v720h494v-142h-324z" />
    <glyph glyph-name="G" unicode="G" horiz-adv-x="763" 
d="M709 -2q-42 0 -69 17t-47 55q-37 -41 -88.5 -64t-115.5 -23q-83 0 -148 29t-110.5 79t-69.5 118.5t-24 148.5q0 81 24 150.5t70 120t111.5 79.5t149.5 29q64 0 119.5 -17.5t97.5 -51.5t68 -84.5t32 -116.5h-166q-4 30 -17.5 54t-34.5 41.5t-47.5 27t-55.5 9.5
q-50 0 -84 -22t-56 -56.5t-31.5 -77t-9.5 -84.5t9.5 -84t30.5 -76.5t55 -56t83 -21.5q60 0 95.5 32t49.5 83h-142v133h321v-179q0 -42 14.5 -57t48.5 -15z" />
    <glyph glyph-name="H" unicode="H" horiz-adv-x="693" 
d="M465 0v309h-241v-309h-170v720h170v-279h241v279h170v-720h-170z" />
    <glyph glyph-name="I" unicode="I" horiz-adv-x="278" 
d="M54 0v720h170v-720h-170z" />
    <glyph glyph-name="J" unicode="J" 
d="M548 239q0 -133 -61.5 -194.5t-188.5 -61.5q-63 0 -109 17.5t-76 49t-44.5 76t-14.5 98.5v56h153v-41q0 -27 3.5 -49.5t13 -39t26.5 -26t44 -9.5t43.5 11t25.5 29t12 40.5t3 45.5v337h-103q-39 0 -53 -14t-14 -46l-112 58q0 26 4 52t18 46.5t40 33t70 12.5h320v-481v0z
" />
    <glyph glyph-name="K" unicode="K" horiz-adv-x="571" 
d="M377 0l-153 216v-216h-170v720h170v-216l153 216h194l-250 -360l250 -360h-194z" />
    <glyph glyph-name="L" unicode="L" 
d="M602 144q0 -26 -4 -52t-18 -46.5t-40 -33t-69 -12.5h-417v720h170v-578h199q40 0 54 14t14 46l111 -58v0z" />
    <glyph glyph-name="M" unicode="M" horiz-adv-x="926" 
d="M702 0v479q0 21 -2.5 43.5t-10.5 40.5t-23.5 29.5t-40.5 11.5q-26 0 -41 -11.5t-23 -29.5t-10.5 -40.5t-2.5 -43.5v-479h-170v479q0 21 -2.5 43.5t-10.5 40.5t-23.5 29.5t-40.5 11.5q-26 0 -41 -11.5t-23 -29.5t-10.5 -40.5t-2.5 -43.5v-479h-170v496q0 121 63 181
t184 60q48 0 89.5 -13t72.5 -42q31 29 72.5 42t89.5 13q121 0 184 -60t63 -181v-496h-170z" />
    <glyph glyph-name="N" unicode="N" 
d="M378 0v479q0 21 -2.5 43t-10.5 40t-23.5 30t-40.5 12q-26 0 -41 -12t-23 -30t-10.5 -40t-2.5 -43v-479h-170v496q0 121 63 181t184 60q124 0 185.5 -61t61.5 -180v-496h-170z" />
    <glyph glyph-name="O" unicode="O" horiz-adv-x="782" 
d="M575 360q0 43 -10.5 85.5t-32.5 76.5t-57 55.5t-84 21.5q-50 0 -84.5 -21.5t-57 -55.5t-32.5 -76.5t-10 -85.5t10 -85.5t32.5 -76.5t57 -55.5t84.5 -21.5q49 0 84 21.5t57 55.5t32 76.5t10 85.5h1zM745 360q0 -79 -24.5 -148t-70.5 -120t-111.5 -80t-147.5 -29t-147.5 29
t-111.5 80t-70.5 120t-24.5 148t24.5 148t70.5 120t111.5 80t147.5 29t147.5 -29t111.5 -80t70.5 -120t24.5 -148z" />
    <glyph glyph-name="P" unicode="P" horiz-adv-x="605" 
d="M407 482q0 29 -9.5 47.5t-26.5 29.5t-40.5 15t-50.5 4h-56v-196h46q27 0 51.5 4t43.5 15t30.5 30.5t11.5 50.5zM568 488q0 -60 -20 -105t-55 -75t-84.5 -44.5t-107.5 -14.5h-77v-249h-170v720h263q67 0 115 -21t78 -54t44 -74.5t14 -82.5z" />
    <glyph glyph-name="Q" unicode="Q" horiz-adv-x="782" 
d="M575 360q0 43 -10.5 85.5t-32.5 76.5t-57 55.5t-84 21.5q-50 0 -84.5 -21.5t-57 -55.5t-32.5 -76.5t-10 -85.5t10 -85.5t32.5 -76.5t57 -55.5t84.5 -21.5q46 0 78 29l-39 44q-13 14 -23.5 24t-23.5 11q-18 1 -41 -17l-13 124q21 15 44 26.5t48 12.5q26 1 49 -15.5
t52 -47.5l35 -37q9 20 13 41.5t4 43.5h1zM807 -71q-22 -16 -45.5 -27.5t-49.5 -11.5q-47 0 -99 63l-62 75q-68 -45 -160 -45q-82 0 -147.5 29t-111.5 80t-70.5 120t-24.5 148t24.5 148t70.5 120t111.5 80t147.5 29t147.5 -29t111.5 -80t70.5 -120t24.5 -148q0 -71 -20 -134
t-59 -114l40 -41l23 -24t24 -11q10 -1 20 4t21 13l13 -124v0z" />
    <glyph glyph-name="R" unicode="R" horiz-adv-x="609" 
d="M402 494q0 45 -28.5 69.5t-101.5 24.5h-46v-192h52q21 0 43 4t40 15t29.5 30t11.5 49zM572 520q0 -60 -30.5 -110t-88.5 -69q32 -9 53.5 -28t35 -43.5t19.5 -54t6 -60.5v-155h-165v125q0 33 -5 61t-18.5 48t-37.5 31.5t-61 11.5h-54v-277h-170v720h286q48 0 89.5 -12
t73 -37t49.5 -62.5t18 -88.5z" />
    <glyph glyph-name="S" unicode="S" horiz-adv-x="638" 
d="M627 218q0 -65 -27 -110t-70.5 -72.5t-98 -40t-110.5 -12.5q-25 0 -58 4t-67.5 15t-67.5 29t-59 47t-42 69t-16 94h170q0 -73 42.5 -104t111.5 -31q21 0 42.5 5t39 16t29 29.5t11.5 44.5q0 24 -11 39t-33.5 26.5t-55.5 21l-78 21.5l-86 25t-77.5 34.5t-56.5 55.5t-22 88
q0 60 23.5 102.5t62.5 70t89 40t102 12.5q57 0 107.5 -12t89.5 -39.5t63 -71.5t27 -108h-162q2 29 -8.5 49.5t-28.5 33.5t-41.5 19t-47.5 6q-18 0 -38.5 -3.5t-37.5 -12.5t-28 -24.5t-11 -38.5q1 -27 20 -43.5t49.5 -28t69 -20.5l78.5 -19q41 -11 79 -25.5t67.5 -37.5
t47.5 -57.5t18 -85.5z" />
    <glyph glyph-name="T" unicode="T" 
d="M386 578v-578h-170v578h-37q-40 0 -54 -14t-14 -46l-111 58q0 26 4 52t18 46.5t39.5 33t69.5 12.5h471v-142h-216z" />
    <glyph glyph-name="U" unicode="U" 
d="M548 225q0 -122 -63 -182t-184 -60q-124 0 -185.5 61t-61.5 180v496h170v-479q0 -21 2.5 -43t10.5 -40t23 -30t41 -12t41 12t23 30t10.5 40t2.5 43v479h170v-495v0z" />
    <glyph glyph-name="V" unicode="V" horiz-adv-x="614" 
d="M394 0h-174l-220 720h174l133 -419l134 419h173z" />
    <glyph glyph-name="W" unicode="W" horiz-adv-x="926" 
d="M872 224q0 -121 -63 -181t-184 -60q-48 0 -89.5 13t-72.5 42q-31 -29 -72.5 -42t-89.5 -13q-121 0 -184 60t-63 181v496h170v-479q0 -21 2.5 -43.5t10.5 -40.5t23 -29.5t41 -11.5q25 0 40.5 11.5t23.5 29.5t10.5 40.5t2.5 43.5v479h170v-479q0 -21 2.5 -43.5t10.5 -40.5
t23 -29.5t41 -11.5q25 0 40.5 11.5t23.5 29.5t10.5 40.5t2.5 43.5v479h170v-496v0z" />
    <glyph glyph-name="X" unicode="X" horiz-adv-x="695" 
d="M500 0l-153 216l-152 -216h-195l250 360l-250 360h195l152 -216l153 216h195l-250 -360l250 -360h-195z" />
    <glyph glyph-name="Y" unicode="Y" 
d="M548 535q0 -98 -41 -155.5t-121 -75.5v-304h-170v304q-162 38 -162 231v185h170v-169q0 -21 2.5 -43t10.5 -40t23 -30t41 -12t41 12t23 30.5t10.5 40.5t2.5 42v169h170v-185v0z" />
    <glyph glyph-name="Z" unicode="Z" horiz-adv-x="636" 
d="M639 144q0 -26 -4 -52t-18 -46.5t-40 -33t-70 -12.5h-489v136l379 442h-353v142h575v-127l-381 -451h222q39 0 53 14t14 46l112 -58v0z" />
    <glyph glyph-name="bracketleft" unicode="[" horiz-adv-x="376" 
d="M54 -206v926h277v-120h-139v-686h139v-120h-277z" />
    <glyph glyph-name="backslash" unicode="\" horiz-adv-x="399" 
d="M280 0l-280 720h119l280 -720h-119z" />
    <glyph glyph-name="bracketright" unicode="]" horiz-adv-x="376" 
d="M52 -206v120h139v686h-139v120h277v-926h-277z" />
    <glyph glyph-name="asciicircum" unicode="^" horiz-adv-x="473" 
d="M353 333l-116 250l-117 -250h-120l188 387h97l188 -387h-120z" />
    <glyph glyph-name="underscore" unicode="_" horiz-adv-x="500" 
d="M0 -125v50h500v-50h-500z" />
    <glyph glyph-name="grave" unicode="`" horiz-adv-x="0" 
d="M172 716h164l106 -148h-107z" />
    <glyph glyph-name="a" unicode="a" horiz-adv-x="671" 
d="M464 331q0 20 -13 36t-32.5 27.5t-41 17.5t-39.5 6q-41 0 -69 -12t-45 -34t-25 -51.5t-8 -64.5q0 -72 34 -114t110 -42q21 0 44 6.5t41.5 19.5t31 31t12.5 42v132zM464 0v42q-30 -26 -70.5 -40.5t-88.5 -14.5q-58 0 -107 20t-85 55.5t-56 85t-20 108.5q0 60 20 110.5
t56 87t85.5 57t109.5 20.5q45 0 85 -12.5t70 -38.5v38h154v-518h-153z" />
    <glyph glyph-name="b" unicode="b" horiz-adv-x="671" 
d="M480 256q0 35 -8 64.5t-25 51.5t-45.5 34t-68.5 12q-18 0 -39.5 -6t-41 -17.5t-32.5 -27.5t-13 -36v-132q0 -24 12.5 -42t31 -31t41.5 -19.5t44 -6.5q76 0 110 42t34 114zM634 256q0 -59 -20 -108.5t-56 -85t-85 -55.5t-107 -20q-48 0 -88.5 14.5t-69.5 40.5v-42h-154
v720h153v-240q31 26 71 38.5t85 12.5q60 0 109.5 -20.5t85.5 -57t56 -87t20 -110.5z" />
    <glyph glyph-name="c" unicode="c" horiz-adv-x="594" 
d="M557 199q-6 -51 -27.5 -90.5t-55 -66.5t-76.5 -41t-93 -14q-59 0 -108 20t-84.5 56t-55.5 85t-20 108t20 109.5t55.5 87t85.5 57.5t110 21q47 0 90 -12.5t77 -37.5t55.5 -62.5t26.5 -87.5h-146q-5 42 -32 64.5t-68 22.5q-36 0 -59.5 -14t-37 -37t-19 -52t-5.5 -59
q0 -29 5.5 -57t19 -50t36 -35.5t57.5 -13.5q43 0 71 28.5t32 70.5h146v0z" />
    <glyph glyph-name="d" unicode="d" horiz-adv-x="671" 
d="M464 331q0 20 -13 36t-32.5 27.5t-41 17.5t-39.5 6q-41 0 -69 -12t-45 -34t-25 -51.5t-8 -64.5q0 -72 34 -114t110 -42q21 0 44 6.5t41.5 19.5t31 31t12.5 42v132zM464 0v42q-30 -26 -70.5 -40.5t-88.5 -14.5q-58 0 -107 20t-85 55.5t-56 85t-20 108.5q0 60 20 110.5
t56 87t85.5 57t109.5 20.5q45 0 85 -12.5t70 -38.5v240h154v-720h-153z" />
    <glyph glyph-name="e" unicode="e" horiz-adv-x="594" 
d="M399 364q-11 26 -34 40t-54 14q-29 0 -50 -10t-35.5 -26.5t-22 -38.5t-9.5 -46q0 -2 -0.5 -4.5t-0.5 -4.5l206 76v0zM557 199q-6 -51 -27.5 -90.5t-55 -66.5t-76.5 -41t-93 -14q-59 0 -108 20t-84.5 56t-55.5 85t-20 108t20 109.5t55.5 87t85.5 57.5t110 21
q47 0 90 -12.5t77 -37.5t55.5 -62.5t26.5 -87.5l-361 -132q8 -42 34.5 -70.5t77.5 -28.5q43 0 71 28.5t32 70.5h146v0z" />
    <glyph glyph-name="f" unicode="f" horiz-adv-x="262" 
d="M315 613q-18 3 -44 3q-34 0 -49 -13.5t-15 -54.5v-30h55v-107h-54v-411h-154v411h-54v96h54v88q0 47 13.5 75t35.5 42.5t49.5 19t55.5 4.5q29 0 55.5 -2.5t51.5 -2.5v-118v0z" />
    <glyph glyph-name="g" unicode="g" horiz-adv-x="669" 
d="M464 331q0 20 -13 36t-32.5 27.5t-41 17.5t-39.5 6q-41 0 -69 -12t-45 -34t-25 -51.5t-8 -64.5q0 -72 34 -114t110 -42q21 0 43.5 6.5t41.5 19.5t31 31t12 42zM617 15q0 -42 -9.5 -84.5t-37.5 -76.5t-78 -55.5t-131 -21.5q-44 0 -87 7.5t-78 27t-58.5 52.5t-28.5 83h152
q6 -33 34 -55t61 -22q30 0 50.5 12t33 31.5t18.5 43.5t6 48v37q-30 -26 -70.5 -40.5t-88.5 -14.5q-58 0 -107 20t-85 55.5t-56 85t-20 108.5q0 60 20 110.5t56 87t85.5 57t109.5 20.5q45 0 85 -12.5t70 -38.5v38h154v-503v0z" />
    <glyph glyph-name="h" unicode="h" horiz-adv-x="611" 
d="M403 0v288q0 24 -3.5 45.5t-13.5 38t-27.5 26t-44.5 9.5q-29 0 -49 -10.5t-32.5 -28.5t-18.5 -41.5t-6 -48.5v-278h-154v720h153v-276q31 47 72 67t98 20q40 0 73.5 -12.5t57 -36t36.5 -56.5t13 -74v-352h-154z" />
    <glyph glyph-name="i" unicode="i" horiz-adv-x="262" 
d="M54 0v518h153v-518h-153zM225 656q0 -19 -8 -34t-21.5 -25.5t-30.5 -16t-34 -5.5t-34 5.5t-30.5 16t-21.5 25.5t-8 34q0 18 8 33t21.5 25.5t30.5 16.5t34 6t34 -6t30.5 -16.5t21.5 -25.5t8 -33z" />
    <glyph glyph-name="j" unicode="j" horiz-adv-x="262" 
d="M208 15q0 -42 -10 -84.5t-37.5 -76.5t-77.5 -55.5t-131 -21.5q-45 0 -88 7.5t-77.5 27t-58 52.5t-29.5 83h152q7 -33 35 -55t61 -22q30 0 50 12t33 31.5t18.5 43.5t5.5 48v513h153v-504zM225 656q0 -19 -8 -34t-21.5 -25.5t-30.5 -16t-34 -5.5t-34 5.5t-30.5 16
t-21.5 25.5t-8 34q0 18 8 33t21.5 25.5t30.5 16.5t34 6t34 -6t30.5 -16.5t21.5 -25.5t8 -33z" />
    <glyph glyph-name="k" unicode="k" horiz-adv-x="471" 
d="M304 0l-96 135v-135h-154v720h153v-337l97 135h167l-180 -259l180 -259h-167z" />
    <glyph glyph-name="l" unicode="l" horiz-adv-x="262" 
d="M54 0v720h154v-720h-154z" />
    <glyph glyph-name="m" unicode="m" horiz-adv-x="960" 
d="M752 0v288q0 24 -3.5 45.5t-13.5 38t-27.5 26t-44.5 9.5q-29 0 -49 -10.5t-32.5 -28.5t-18.5 -41.5t-6 -48.5v-278h-154v288q0 24 -3.5 45.5t-13.5 38t-27.5 26t-44.5 9.5q-29 0 -49 -10.5t-32.5 -28.5t-18.5 -41.5t-6 -48.5v-278h-154v518h153v-74q31 47 72.5 67
t97.5 20q63 0 107 -30t61 -82q25 60 70.5 86t110.5 26q40 0 73.5 -13t57 -36t36.5 -56.5t13 -73.5v-352h-154z" />
    <glyph glyph-name="n" unicode="n" horiz-adv-x="611" 
d="M403 0v288q0 24 -3.5 45.5t-13.5 38t-27.5 26t-44.5 9.5q-29 0 -49 -10.5t-32.5 -28.5t-18.5 -41.5t-6 -48.5v-278h-154v518h153v-74q31 47 72 67t98 20q40 0 73.5 -12.5t57 -36t36.5 -56.5t13 -74v-352h-154z" />
    <glyph glyph-name="o" unicode="o" horiz-adv-x="614" 
d="M424 259q0 27 -5.5 55.5t-19 51.5t-36 37.5t-56.5 14.5t-56.5 -14.5t-36 -37.5t-19 -51t-5.5 -56q0 -27 5.5 -55.5t19 -51.5t36 -37.5t56.5 -14.5t56.5 14.5t36 37.5t19 51t5.5 56zM577 259q0 -54 -16.5 -103t-49.5 -86.5t-84 -60t-120 -22.5t-120 22.5t-84 60
t-49.5 86.5t-16.5 103t16.5 103t49.5 86.5t84 60t120 22.5t120 -22.5t84 -60t49.5 -86.5t16.5 -103z" />
    <glyph glyph-name="p" unicode="p" horiz-adv-x="671" 
d="M480 256q0 35 -8 64.5t-25 51.5t-45.5 34t-68.5 12q-18 0 -39.5 -6t-41 -17.5t-32.5 -27.5t-13 -36v-132q0 -24 12.5 -42t31 -31t41.5 -19.5t44 -6.5q76 0 110 42t34 114zM634 256q0 -59 -20 -108.5t-56 -85t-85 -55.5t-107 -20q-48 0 -88.5 14.5t-69.5 40.5v-248h-154
v724h153v-38q31 26 71 38.5t85 12.5q60 0 109.5 -20.5t85.5 -57t56 -87t20 -110.5z" />
    <glyph glyph-name="q" unicode="q" horiz-adv-x="671" 
d="M464 331q0 20 -13 36t-32.5 27.5t-41 17.5t-39.5 6q-41 0 -69 -12t-45 -34t-25 -51.5t-8 -64.5q0 -72 34 -114t110 -42q21 0 44 6.5t41.5 19.5t31 31t12.5 42v132zM464 -206v248q-30 -26 -70.5 -40.5t-88.5 -14.5q-58 0 -107 20t-85 55.5t-56 85t-20 108.5q0 60 20 110.5
t56 87t85.5 57t109.5 20.5q45 0 85 -12.5t70 -38.5v38h154v-724h-153z" />
    <glyph glyph-name="r" unicode="r" horiz-adv-x="408" 
d="M314 407q-29 0 -49 -10.5t-32.5 -28.5t-18.5 -41.5t-6 -48.5v-278h-154v518h153v-74q31 47 72.5 66.5t97.5 19.5h15.5t15.5 -2z" />
    <glyph glyph-name="s" unicode="s" horiz-adv-x="537" 
d="M514 160q0 -50 -22 -83t-57 -53t-78.5 -28.5t-87.5 -8.5q-47 0 -91 10t-78 32.5t-55 57.5t-22 85h147q2 -46 31 -67t73 -21q15 0 31 3t29.5 10t22.5 18.5t9 28.5t-7 28t-22 19t-39 14t-58 12q-50 9 -88 21.5t-63.5 31t-38.5 44t-13 60.5q0 42 20 72t52 49t73 27.5t82 8.5
q42 0 84 -7.5t75 -26.5t54 -51t23 -80h-140q-1 19 -8.5 33.5t-20.5 24t-29 14.5t-34 5q-43 0 -63.5 -17t-20.5 -40q0 -21 24 -34.5t56 -22.5t65 -14.5t50 -10.5q26 -8 50.5 -19t43 -27.5t30 -40.5t11.5 -57z" />
    <glyph glyph-name="t" unicode="t" horiz-adv-x="262" 
d="M208 421v-421h-154v421h-54v97h54v106l153 70v-176h55v-97h-54z" />
    <glyph glyph-name="u" unicode="u" horiz-adv-x="611" 
d="M403 0v74q-30 -47 -71.5 -67t-98.5 -20q-40 0 -73 12.5t-56.5 36t-36.5 56t-13 73.5v353h153v-289q0 -23 4 -44.5t14 -38t27.5 -26t44.5 -9.5q28 0 48 10.5t33 28t19 40.5t6 49v279h154v-518h-154z" />
    <glyph glyph-name="v" unicode="v" horiz-adv-x="506" 
d="M333 0h-160l-173 518h159l94 -274l93 274h160z" />
    <glyph glyph-name="w" unicode="w" horiz-adv-x="960" 
d="M752 0v74q-30 -47 -72 -67t-98 -20q-63 0 -106.5 29.5t-60.5 82.5q-25 -60 -70.5 -86t-111.5 -26q-41 0 -74 12.5t-56 36t-36 56t-13 73.5v353h153v-289q0 -23 4 -44.5t14 -38t27.5 -26t44.5 -9.5q28 0 48.5 10.5t33 28.5t18.5 41t6 48v279h153v-289q0 -23 4 -44.5
t14 -38t27.5 -26t44.5 -9.5q28 0 48.5 10.5t33 28.5t18.5 41t6 48v279h154v-518h-154z" />
    <glyph glyph-name="x" unicode="x" horiz-adv-x="527" 
d="M360 0l-96 135l-96 -135h-168l180 259l-180 259h167l97 -135l96 135h167l-180 -259l180 -259h-167z" />
    <glyph glyph-name="y" unicode="y" horiz-adv-x="611" 
d="M557 15q0 -42 -10 -84.5t-37.5 -76.5t-77.5 -55.5t-131 -21.5q-45 0 -88 7.5t-77.5 27t-58 52.5t-29.5 83h152q7 -33 35 -55t61 -22q30 0 50 12t33 31.5t18.5 43.5t5.5 48v69q-30 -47 -71.5 -67t-98.5 -20q-40 0 -73 12.5t-56.5 36t-36.5 56t-13 73.5v353h153v-289
q0 -23 4 -44.5t14 -38t27.5 -26t44.5 -9.5q28 0 48 10.5t33 28t19 40.5t6 49v279h154v-503v0z" />
    <glyph glyph-name="z" unicode="z" horiz-adv-x="519" 
d="M519 118q0 -22 -3.5 -43t-15 -37.5t-33 -27t-57.5 -10.5h-396v121l272 284h-249v113h445v-120l-268 -285h159q34 0 45.5 12.5t11.5 38.5l89 -46v0z" />
    <glyph glyph-name="braceleft" unicode="{" horiz-adv-x="394" 
d="M251 -206q-53 0 -89 32.5t-36 91.5v188q0 42 -23 63t-58 29v120q14 0 28.5 6t26 16.5t19 26t7.5 35.5v195q0 59 36 91t89 32h98v-120h-38q-31 0 -41.5 -18.5t-10.5 -53.5v-162q0 -24 -9 -43.5t-24 -33t-34.5 -21.5t-40.5 -11q23 -3 42.5 -10.5t34 -21t22.5 -34t8 -49.5
v-155q0 -39 13 -56t45 -17h33v-120h-98z" />
    <glyph glyph-name="bar" unicode="|" horiz-adv-x="228" 
d="M54 0v720h120v-720h-120z" />
    <glyph glyph-name="braceright" unicode="}" horiz-adv-x="394" 
d="M349 198q-35 -8 -58 -29t-23 -63v-188q0 -59 -36 -91.5t-89 -32.5h-98v120h33q32 0 44.5 17t12.5 56v155q0 29 8.5 49.5t23 34t34 21t42.5 10.5q-21 3 -40.5 11t-34.5 21.5t-24 33t-9 43.5v162q0 35 -10.5 53.5t-41.5 18.5h-38v120h98q53 0 89 -32t36 -91v-195
q0 -20 7 -35.5t18.5 -26t26 -16.5t29.5 -6v-120v0z" />
    <glyph glyph-name="asciitilde" unicode="~" horiz-adv-x="532" 
d="M495 352q-11 -16 -23 -31.5t-26 -27.5t-32 -19.5t-40 -7.5q-27 0 -51 10t-50 23q-24 13 -52.5 24t-63.5 11q-34 0 -54 -22t-34 -50l-32 105q17 33 46 59.5t77 27.5q26 0 55 -10t58 -23l55 -23.5t47 -11.5q30 0 50.5 22.5t37.5 48.5l32 -105v0z" />
    <glyph glyph-name="Adieresis" unicode="&#xc4;" 
d="M378 479q0 21 -2.5 43t-10.5 40t-23.5 30t-40.5 12q-26 0 -41 -12t-23 -30t-10.5 -40t-2.5 -43v-53h154v53zM378 0v294h-154v-294h-170v495q0 122 63 182t184 60q124 0 185.5 -61t61.5 -180v-496h-170zM282 828q0 -18 -8 -33t-21.5 -25.5t-30.5 -16.5t-34 -6t-33.5 6
t-30 16.5t-21.5 25.5t-8 33q0 19 8 34t21.5 25.5t30 16t33.5 5.5t34 -5.5t30.5 -16t21.5 -25.5t8 -34zM518 828q0 -18 -8 -33t-21.5 -25.5t-30.5 -16.5t-34 -6t-34 6t-30.5 16.5t-21.5 25.5t-8 33q0 19 8 34t21.5 25.5t30.5 16t34 5.5t34 -5.5t30.5 -16t21.5 -25.5t8 -34z
" />
    <glyph glyph-name="Aring" unicode="&#xc5;" 
d="M378 479q0 21 -2.5 43t-10.5 40t-23.5 30t-40.5 12q-26 0 -41 -12t-23 -30t-10.5 -40t-2.5 -43v-53h154v53zM357 852q0 23 -16.5 39.5t-39.5 16.5q-22 0 -39.5 -16.5t-17.5 -39.5t17 -40t40 -17t39.5 17.5t16.5 39.5zM378 0v294h-154v-294h-170v495q0 122 63 182t184 60
q124 0 185.5 -61t61.5 -180v-496h-170zM407 852q0 -22 -8.5 -41.5t-22.5 -34t-33.5 -23t-41.5 -8.5t-41.5 8.5t-34 23t-23 34t-8.5 41.5t8.5 41t23 33.5t34 23t41.5 8.5q21 0 40.5 -8.5t34 -23t23 -33.5t8.5 -41z" />
    <glyph glyph-name="Ccedilla" unicode="&#xc7;" horiz-adv-x="746" 
d="M709 280q-2 -63 -25.5 -115.5t-63 -91.5t-92.5 -62t-114 -27l-31 -47q9 4 20.5 5t22.5 1q18 0 34.5 -4.5t30 -13.5t21.5 -23.5t8 -34.5q0 -25 -11.5 -42t-29 -27t-39.5 -14t-43 -4q-36 0 -64 7t-60 18l18 40l40.5 -12.5t42.5 -6.5q20 0 39 8.5t19 32.5q0 18 -15 27t-31 9
q-23 0 -42 -11l-24 21l46 71q-77 4 -138 34.5t-103.5 80.5t-65 116t-22.5 143q0 81 24 150.5t70 120t111.5 79.5t149.5 29q64 0 119.5 -17.5t97.5 -51.5t68 -84.5t32 -116.5h-166q-4 30 -17.5 54t-34.5 41.5t-47.5 27t-55.5 9.5q-50 0 -84 -22t-56 -56.5t-31.5 -77
t-9.5 -84.5t9.5 -84t30.5 -76.5t55 -56t83 -21.5q36 0 63.5 12.5t46.5 34t31 50.5t17 62h166v0z" />
    <glyph glyph-name="Eacute" unicode="&#xc9;" horiz-adv-x="652" 
d="M54 0v720h494v-142h-324v-152h292v-132h-292v-152h333v-142h-503zM301 764h-106l107 148h165z" />
    <glyph glyph-name="Ntilde" unicode="&#xd1;" 
d="M378 0v479q0 21 -2.5 43t-10.5 40t-23.5 30t-40.5 12q-26 0 -41 -12t-23 -30t-10.5 -40t-2.5 -43v-479h-170v496q0 121 63 181t184 60q124 0 185.5 -61t61.5 -180v-496h-170zM495 896q-1 -25 -8 -47.5t-20 -39t-32 -26.5t-44 -10q-22 0 -42 6.5t-38 14.5t-35 14.5
t-33 6.5q-17 0 -29 -15.5t-14 -31.5h-64q0 20 5.5 42t17.5 41t31.5 31t46.5 12q21 0 42.5 -7t41 -15l35.5 -15t27 -7q17 0 29 10.5t17 35.5h66v0z" />
    <glyph glyph-name="Odieresis" unicode="&#xd6;" horiz-adv-x="782" 
d="M575 360q0 43 -10.5 85.5t-32.5 76.5t-57 55.5t-84 21.5q-50 0 -84.5 -21.5t-57 -55.5t-32.5 -76.5t-10 -85.5t10 -85.5t32.5 -76.5t57 -55.5t84.5 -21.5q49 0 84 21.5t57 55.5t32 76.5t10 85.5h1zM745 360q0 -79 -24.5 -148t-70.5 -120t-111.5 -80t-147.5 -29t-147.5 29
t-111.5 80t-70.5 120t-24.5 148t24.5 148t70.5 120t111.5 80t147.5 29t147.5 -29t111.5 -80t70.5 -120t24.5 -148zM361 828q0 -18 -8 -33t-21.5 -25.5t-30.5 -16.5t-34 -6t-34 6t-30.5 16.5t-21.5 25.5t-8 33q0 19 8 34t21.5 25.5t30.5 16t34 5.5t34 -5.5t30.5 -16
t21.5 -25.5t8 -34zM596 828q0 -18 -8 -33t-21.5 -25.5t-30 -16.5t-33.5 -6t-34 6t-30.5 16.5t-21.5 25.5t-8 33q0 19 8 34t21.5 25.5t30.5 16t34 5.5t33.5 -5.5t30 -16t21.5 -25.5t8 -34z" />
    <glyph glyph-name="Udieresis" unicode="&#xdc;" 
d="M548 225q0 -122 -63 -182t-184 -60q-124 0 -185.5 61t-61.5 180v496h170v-479q0 -21 2.5 -43t10.5 -40t23 -30t41 -12t41 12t23 30t10.5 40t2.5 43v479h170v-496v1zM276 828q0 -18 -8 -33t-21.5 -25.5t-30.5 -16.5t-34 -6t-34 6t-30.5 16.5t-21.5 25.5t-8 33q0 19 8 34
t21.5 25.5t30.5 16t34 5.5t34 -5.5t30.5 -16t21.5 -25.5t8 -34zM512 828q0 -18 -8 -33t-21.5 -25.5t-30.5 -16.5t-34 -6t-34 6t-30.5 16.5t-21.5 25.5t-8 33q0 19 8 34t21.5 25.5t30.5 16t34 5.5t34 -5.5t30.5 -16t21.5 -25.5t8 -34z" />
    <glyph glyph-name="aacute" unicode="&#xe1;" horiz-adv-x="671" 
d="M464 331q0 20 -13 36t-32.5 27.5t-41 17.5t-39.5 6q-41 0 -69 -12t-45 -34t-25 -51.5t-8 -64.5q0 -72 34 -114t110 -42q21 0 44 6.5t41.5 19.5t31 31t12.5 42v132zM464 0v42q-30 -26 -70.5 -40.5t-88.5 -14.5q-58 0 -107 20t-85 55.5t-56 85t-20 108.5q0 60 20 110.5
t56 87t85.5 57t109.5 20.5q45 0 85 -12.5t70 -38.5v38h154v-518h-153zM305 568h-106l107 148h164z" />
    <glyph glyph-name="agrave" unicode="&#xe0;" horiz-adv-x="671" 
d="M464 331q0 20 -13 36t-32.5 27.5t-41 17.5t-39.5 6q-41 0 -69 -12t-45 -34t-25 -51.5t-8 -64.5q0 -72 34 -114t110 -42q21 0 44 6.5t41.5 19.5t31 31t12.5 42v132zM464 0v42q-30 -26 -70.5 -40.5t-88.5 -14.5q-58 0 -107 20t-85 55.5t-56 85t-20 108.5q0 60 20 110.5
t56 87t85.5 57t109.5 20.5q45 0 85 -12.5t70 -38.5v38h154v-518h-153zM323 568l-163 148h163l107 -148h-107z" />
    <glyph glyph-name="acircumflex" unicode="&#xe2;" horiz-adv-x="671" 
d="M464 331q0 20 -13 36t-32.5 27.5t-41 17.5t-39.5 6q-41 0 -69 -12t-45 -34t-25 -51.5t-8 -64.5q0 -72 34 -114t110 -42q21 0 44 6.5t41.5 19.5t31 31t12.5 42v132zM464 0v42q-30 -26 -70.5 -40.5t-88.5 -14.5q-58 0 -107 20t-85 55.5t-56 85t-20 108.5q0 60 20 110.5
t56 87t85.5 57t109.5 20.5q45 0 85 -12.5t70 -38.5v38h154v-518h-153zM380 569l-68 88l-67 -88h-115l119 147h126l121 -147h-116z" />
    <glyph glyph-name="adieresis" unicode="&#xe4;" horiz-adv-x="671" 
d="M464 331q0 20 -13 36t-32.5 27.5t-41 17.5t-39.5 6q-41 0 -69 -12t-45 -34t-25 -51.5t-8 -64.5q0 -72 34 -114t110 -42q21 0 44 6.5t41.5 19.5t31 31t12.5 42v132zM464 0v42q-30 -26 -70.5 -40.5t-88.5 -14.5q-58 0 -107 20t-85 55.5t-56 85t-20 108.5q0 60 20 110.5
t56 87t85.5 57t109.5 20.5q45 0 85 -12.5t70 -38.5v38h154v-518h-153zM317 632q0 -19 -8 -34t-21.5 -25.5t-30.5 -16t-34 -5.5t-34 5.5t-30.5 16t-21.5 25.5t-8 34t8 34t21.5 25.5t30.5 16t34 5.5t34 -5.5t30.5 -16t21.5 -25.5t8 -34zM552 632q0 -19 -8 -34t-21.5 -25.5
t-30 -16t-33.5 -5.5t-34 5.5t-30.5 16t-21.5 25.5t-8 34t8 34t21.5 25.5t30.5 16t34 5.5t33.5 -5.5t30 -16t21.5 -25.5t8 -34z" />
    <glyph glyph-name="atilde" unicode="&#xe3;" horiz-adv-x="671" 
d="M464 331q0 20 -13 36t-32.5 27.5t-41 17.5t-39.5 6q-41 0 -69 -12t-45 -34t-25 -51.5t-8 -64.5q0 -72 34 -114t110 -42q21 0 44 6.5t41.5 19.5t31 31t12.5 42v132zM464 0v42q-30 -26 -70.5 -40.5t-88.5 -14.5q-58 0 -107 20t-85 55.5t-56 85t-20 108.5q0 60 20 110.5
t56 87t85.5 57t109.5 20.5q45 0 85 -12.5t70 -38.5v38h154v-518h-153zM524 700q-1 -25 -8 -47.5t-20 -39.5t-32 -27t-44 -10q-22 0 -42 6.5t-38 15t-35 15t-33 6.5q-18 0 -29.5 -16t-13.5 -31h-64q0 20 5 42t17 41t31.5 31t47.5 12q21 0 42.5 -7t41 -15.5l35 -15.5t26.5 -7
q18 0 30 11t16 36h67v0z" />
    <glyph glyph-name="aring" unicode="&#xe5;" horiz-adv-x="671" 
d="M464 331q0 20 -13 36t-32.5 27.5t-41 17.5t-39.5 6q-41 0 -69 -12t-45 -34t-25 -51.5t-8 -64.5q0 -72 34 -114t110 -42q21 0 44 6.5t41.5 19.5t31 31t12.5 42v132zM365 667q0 23 -17 39.5t-39 16.5q-23 0 -40 -16.5t-17 -39.5t17 -40t40 -17t39.5 17.5t16.5 39.5zM464 0
v42q-30 -26 -70.5 -40.5t-88.5 -14.5q-58 0 -107 20t-85 55.5t-56 85t-20 108.5q0 60 20 110.5t56 87t85.5 57t109.5 20.5q45 0 85 -12.5t70 -38.5v38h154v-518h-153zM415 667q0 -21 -8.5 -40.5t-23 -34.5t-33.5 -23.5t-41 -8.5t-41.5 8.5t-34 23t-23 34t-8.5 41.5t8.5 41
t23 33.5t34 23t41.5 8.5q21 0 40.5 -8.5t34 -23t23 -33.5t8.5 -41z" />
    <glyph glyph-name="ccedilla" unicode="&#xe7;" horiz-adv-x="594" 
d="M557 199q-6 -48 -25.5 -85.5t-49.5 -64.5t-69 -42.5t-84 -18.5l-34 -51q9 4 20.5 5t22.5 1q18 0 34.5 -4.5t30 -13.5t21.5 -23.5t8 -34.5q0 -25 -11.5 -42t-29 -27t-39.5 -14t-43 -4q-36 0 -64 7t-60 18l18 40l40.5 -12.5t42.5 -6.5q20 0 39 8.5t19 32.5q0 18 -15 27
t-31 9q-23 0 -42 -11l-24 21l49 75q-54 4 -99 25.5t-77 57t-50 82.5t-18 103q0 59 20 109.5t55.5 87t85.5 57.5t110 21q47 0 90 -12.5t77 -37.5t55.5 -62.5t26.5 -87.5h-146q-5 42 -32 64.5t-68 22.5q-36 0 -59.5 -14t-37 -37t-19 -52t-5.5 -59q0 -29 5.5 -57t19 -50
t36 -35.5t57.5 -13.5q43 0 71 28.5t32 70.5h146v0z" />
    <glyph glyph-name="eacute" unicode="&#xe9;" horiz-adv-x="552" 
d="M399 364q-11 26 -34 40t-54 14q-29 0 -50 -10t-35.5 -26.5t-22 -38.5t-9.5 -46q0 -2 -0.5 -4.5t-0.5 -4.5l206 76v0zM557 199q-6 -51 -27.5 -90.5t-55 -66.5t-76.5 -41t-93 -14q-59 0 -108 20t-84.5 56t-55.5 85t-20 108t20 109.5t55.5 87t85.5 57.5t110 21
q47 0 90 -12.5t77 -37.5t55.5 -62.5t26.5 -87.5l-361 -132q8 -42 34.5 -70.5t77.5 -28.5q43 0 71 28.5t32 70.5h146v0zM276 568h-106l107 148h165z" />
    <glyph glyph-name="egrave" unicode="&#xe8;" horiz-adv-x="552" 
d="M399 364q-11 26 -34 40t-54 14q-29 0 -50 -10t-35.5 -26.5t-22 -38.5t-9.5 -46q0 -2 -0.5 -4.5t-0.5 -4.5l206 76v0zM557 199q-6 -51 -27.5 -90.5t-55 -66.5t-76.5 -41t-93 -14q-59 0 -108 20t-84.5 56t-55.5 85t-20 108t20 109.5t55.5 87t85.5 57.5t110 21
q47 0 90 -12.5t77 -37.5t55.5 -62.5t26.5 -87.5l-361 -132q8 -42 34.5 -70.5t77.5 -28.5q43 0 71 28.5t32 70.5h146v0zM317 568l-163 148h163l107 -148h-107z" />
    <glyph glyph-name="ecircumflex" unicode="&#xea;" horiz-adv-x="552" 
d="M399 364q-11 26 -34 40t-54 14q-29 0 -50 -10t-35.5 -26.5t-22 -38.5t-9.5 -46q0 -2 -0.5 -4.5t-0.5 -4.5l206 76v0zM557 199q-6 -51 -27.5 -90.5t-55 -66.5t-76.5 -41t-93 -14q-59 0 -108 20t-84.5 56t-55.5 85t-20 108t20 109.5t55.5 87t85.5 57.5t110 21
q47 0 90 -12.5t77 -37.5t55.5 -62.5t26.5 -87.5l-361 -132q8 -42 34.5 -70.5t77.5 -28.5q43 0 71 28.5t32 70.5h146v0zM374 569l-68 88l-67 -88h-115l119 147h126l121 -147h-116z" />
    <glyph glyph-name="edieresis" unicode="&#xeb;" horiz-adv-x="552" 
d="M399 364q-11 26 -34 40t-54 14q-29 0 -50 -10t-35.5 -26.5t-22 -38.5t-9.5 -46q0 -2 -0.5 -4.5t-0.5 -4.5l206 76v0zM557 199q-6 -51 -27.5 -90.5t-55 -66.5t-76.5 -41t-93 -14q-59 0 -108 20t-84.5 56t-55.5 85t-20 108t20 109.5t55.5 87t85.5 57.5t110 21
q47 0 90 -12.5t77 -37.5t55.5 -62.5t26.5 -87.5l-361 -132q8 -42 34.5 -70.5t77.5 -28.5q43 0 71 28.5t32 70.5h146v0zM286 632q0 -19 -8 -34t-21.5 -25.5t-30.5 -16t-34 -5.5t-34 5.5t-30.5 16t-21.5 25.5t-8 34t8 34t21.5 25.5t30.5 16t34 5.5t34 -5.5t30.5 -16
t21.5 -25.5t8 -34zM521 632q0 -19 -8 -34t-21.5 -25.5t-30 -16t-33.5 -5.5t-34 5.5t-30.5 16t-21.5 25.5t-8 34t8 34t21.5 25.5t30.5 16t34 5.5t33.5 -5.5t30 -16t21.5 -25.5t8 -34z" />
    <glyph glyph-name="iacute" unicode="&#xed;" horiz-adv-x="262" 
d="M54 0v518h154v-518h-154zM107 568h-106l107 148h165z" />
    <glyph glyph-name="igrave" unicode="&#xec;" horiz-adv-x="262" 
d="M54 0v518h154v-518h-154zM156 568l-163 148h163l106 -148h-106z" />
    <glyph glyph-name="icircumflex" unicode="&#xee;" horiz-adv-x="262" 
d="M54 0v518h154v-518h-154zM203 569l-69 88l-66 -88h-116l119 147h127l120 -147h-115z" />
    <glyph glyph-name="idieresis" unicode="&#xef;" horiz-adv-x="262" 
d="M54 0v518h154v-518h-154zM114 632q0 -19 -8 -34t-21.5 -25.5t-30.5 -16t-34 -5.5t-33.5 5.5t-30 16t-21.5 25.5t-8 34t8 34t21.5 25.5t30 16t33.5 5.5t34 -5.5t30.5 -16t21.5 -25.5t8 -34zM350 632q0 -19 -8 -34t-21.5 -25.5t-30.5 -16t-34 -5.5t-34 5.5t-30.5 16
t-21.5 25.5t-8 34t8 34t21.5 25.5t30.5 16t34 5.5t34 -5.5t30.5 -16t21.5 -25.5t8 -34z" />
    <glyph glyph-name="ntilde" unicode="&#xf1;" horiz-adv-x="611" 
d="M403 0v288q0 24 -3.5 45.5t-13.5 38t-27.5 26t-44.5 9.5q-29 0 -49 -10.5t-32.5 -28.5t-18.5 -41.5t-6 -48.5v-278h-154v518h153v-74q31 47 72 67t98 20q40 0 73.5 -12.5t57 -36t36.5 -56.5t13 -74v-352h-154zM490 700q-1 -25 -8 -47.5t-20 -39.5t-32 -27t-44 -10
q-22 0 -42 6.5t-38 15t-35 15t-33 6.5q-18 0 -29.5 -16t-13.5 -31h-65q0 20 5.5 42t17.5 41t31.5 31t46.5 12q22 0 43.5 -7t41 -15.5l35 -15.5t26.5 -7q18 0 30 11t16 36h67v0z" />
    <glyph glyph-name="oacute" unicode="&#xf3;" horiz-adv-x="614" 
d="M424 259q0 27 -5.5 55.5t-19 51.5t-36 37.5t-56.5 14.5t-56.5 -14.5t-36 -37.5t-19 -51t-5.5 -56q0 -27 5.5 -55.5t19 -51.5t36 -37.5t56.5 -14.5t56.5 14.5t36 37.5t19 51t5.5 56zM577 259q0 -54 -16.5 -103t-49.5 -86.5t-84 -60t-120 -22.5t-120 22.5t-84 60
t-49.5 86.5t-16.5 103t16.5 103t49.5 86.5t84 60t120 22.5t120 -22.5t84 -60t49.5 -86.5t16.5 -103zM294 568h-106l107 148h164z" />
    <glyph glyph-name="ograve" unicode="&#xf2;" horiz-adv-x="614" 
d="M424 259q0 27 -5.5 55.5t-19 51.5t-36 37.5t-56.5 14.5t-56.5 -14.5t-36 -37.5t-19 -51t-5.5 -56q0 -27 5.5 -55.5t19 -51.5t36 -37.5t56.5 -14.5t56.5 14.5t36 37.5t19 51t5.5 56zM577 259q0 -54 -16.5 -103t-49.5 -86.5t-84 -60t-120 -22.5t-120 22.5t-84 60
t-49.5 86.5t-16.5 103t16.5 103t49.5 86.5t84 60t120 22.5t120 -22.5t84 -60t49.5 -86.5t16.5 -103zM322 568l-163 148h163l107 -148h-107z" />
    <glyph glyph-name="ocircumflex" unicode="&#xf4;" horiz-adv-x="614" 
d="M424 259q0 27 -5.5 55.5t-19 51.5t-36 37.5t-56.5 14.5t-56.5 -14.5t-36 -37.5t-19 -51t-5.5 -56q0 -27 5.5 -55.5t19 -51.5t36 -37.5t56.5 -14.5t56.5 14.5t36 37.5t19 51t5.5 56zM577 259q0 -54 -16.5 -103t-49.5 -86.5t-84 -60t-120 -22.5t-120 22.5t-84 60
t-49.5 86.5t-16.5 103t16.5 103t49.5 86.5t84 60t120 22.5t120 -22.5t84 -60t49.5 -86.5t16.5 -103zM372 569l-69 88l-66 -88h-116l119 147h127l120 -147h-115z" />
    <glyph glyph-name="odieresis" unicode="&#xf6;" horiz-adv-x="614" 
d="M424 259q0 27 -5.5 55.5t-19 51.5t-36 37.5t-56.5 14.5t-56.5 -14.5t-36 -37.5t-19 -51t-5.5 -56q0 -27 5.5 -55.5t19 -51.5t36 -37.5t56.5 -14.5t56.5 14.5t36 37.5t19 51t5.5 56zM577 259q0 -54 -16.5 -103t-49.5 -86.5t-84 -60t-120 -22.5t-120 22.5t-84 60
t-49.5 86.5t-16.5 103t16.5 103t49.5 86.5t84 60t120 22.5t120 -22.5t84 -60t49.5 -86.5t16.5 -103zM283 632q0 -19 -8 -34t-21.5 -25.5t-30.5 -16t-34 -5.5t-33.5 5.5t-30 16t-21.5 25.5t-8 34t8 34t21.5 25.5t30 16t33.5 5.5t34 -5.5t30.5 -16t21.5 -25.5t8 -34zM519 632
q0 -19 -8 -34t-21.5 -25.5t-30.5 -16t-34 -5.5t-34 5.5t-30.5 16t-21.5 25.5t-8 34t8 34t21.5 25.5t30.5 16t34 5.5t34 -5.5t30.5 -16t21.5 -25.5t8 -34z" />
    <glyph glyph-name="otilde" unicode="&#xf5;" horiz-adv-x="614" 
d="M424 259q0 27 -5.5 55.5t-19 51.5t-36 37.5t-56.5 14.5t-56.5 -14.5t-36 -37.5t-19 -51t-5.5 -56q0 -27 5.5 -55.5t19 -51.5t36 -37.5t56.5 -14.5t56.5 14.5t36 37.5t19 51t5.5 56zM577 259q0 -54 -16.5 -103t-49.5 -86.5t-84 -60t-120 -22.5t-120 22.5t-84 60
t-49.5 86.5t-16.5 103t16.5 103t49.5 86.5t84 60t120 22.5t120 -22.5t84 -60t49.5 -86.5t16.5 -103zM483 700q-1 -25 -8 -47.5t-20 -39.5t-32 -27t-44 -10q-22 0 -42 6.5t-38 15t-35 15t-33 6.5q-18 0 -29.5 -16t-13.5 -31h-64q0 20 5 42t17 41t31.5 31t47.5 12
q21 0 42.5 -7t41 -15.5l35 -15.5t26.5 -7q18 0 30 11t16 36h67v0z" />
    <glyph glyph-name="uacute" unicode="&#xfa;" horiz-adv-x="611" 
d="M403 0v74q-30 -47 -71.5 -67t-98.5 -20q-40 0 -73 12.5t-56.5 36t-36.5 56t-13 73.5v353h153v-289q0 -23 4 -44.5t14 -38t27.5 -26t44.5 -9.5q28 0 48 10.5t33 28t19 40.5t6 49v279h154v-518h-154zM285 568h-106l108 148h164z" />
    <glyph glyph-name="ugrave" unicode="&#xf9;" horiz-adv-x="611" 
d="M403 0v74q-30 -47 -71.5 -67t-98.5 -20q-40 0 -73 12.5t-56.5 36t-36.5 56t-13 73.5v353h153v-289q0 -23 4 -44.5t14 -38t27.5 -26t44.5 -9.5q28 0 48 10.5t33 28t19 40.5t6 49v279h154v-518h-154zM314 568l-163 148h163l107 -148h-107z" />
    <glyph glyph-name="ucircumflex" unicode="&#xfb;" horiz-adv-x="611" 
d="M403 0v74q-30 -47 -71.5 -67t-98.5 -20q-40 0 -73 12.5t-56.5 36t-36.5 56t-13 73.5v353h153v-289q0 -23 4 -44.5t14 -38t27.5 -26t44.5 -9.5q28 0 48 10.5t33 28t19 40.5t6 49v279h154v-518h-154zM371 569l-69 88l-67 -88h-115l119 147h127l120 -147h-115z" />
    <glyph glyph-name="udieresis" unicode="&#xfc;" horiz-adv-x="611" 
d="M403 0v74q-30 -47 -71.5 -67t-98.5 -20q-40 0 -73 12.5t-56.5 36t-36.5 56t-13 73.5v353h153v-289q0 -23 4 -44.5t14 -38t27.5 -26t44.5 -9.5q28 0 48 10.5t33 28t19 40.5t6 49v279h154v-518h-154zM286 632q0 -19 -8 -34t-21.5 -25.5t-30.5 -16t-34 -5.5t-34 5.5
t-30.5 16t-21.5 25.5t-8 34t8 34t21.5 25.5t30.5 16t34 5.5t34 -5.5t30.5 -16t21.5 -25.5t8 -34zM521 632q0 -19 -8 -34t-21.5 -25.5t-30 -16t-33.5 -5.5t-34 5.5t-30.5 16t-21.5 25.5t-8 34t8 34t21.5 25.5t30.5 16t34 5.5t33.5 -5.5t30 -16t21.5 -25.5t8 -34z" />
    <glyph glyph-name="dagger" unicode="&#x2020;" horiz-adv-x="610" 
d="M382 391l9 -597h-172l9 597l-183 -9v141l183 -9l-9 206h172l-9 -206l183 9v-141z" />
    <glyph glyph-name="degree" unicode="&#xb0;" horiz-adv-x="369" 
d="M269 584q0 36 -24.5 60t-59.5 24q-17 0 -32.5 -6.5t-27 -18t-18.5 -26.5t-7 -33q0 -36 25 -60t59 -24q35 0 59.5 24t24.5 60h1zM332 584q0 -32 -11 -59t-31 -46.5t-47 -31t-58 -11.5q-32 0 -59 11t-47 31t-31 47t-11 59q0 31 11 58.5t31 47t46.5 31t58.5 11.5t59 -11.5
t47 -31t31 -47t11 -58.5z" />
    <glyph glyph-name="cent" unicode="&#xa2;" horiz-adv-x="594" 
d="M565 300q-11 -90 -66.5 -143.5t-139.5 -64.5v-92h-92v93q-50 7 -91 29.5t-70 57t-45 80t-16 97.5q0 53 15.5 99t44.5 81.5t70 58.5t92 31v93h92v-91q40 -5 76 -19.5t63.5 -39t45 -59t21.5 -79.5h-146q-5 42 -32 64.5t-68 22.5q-36 0 -59 -14t-36.5 -37t-19 -52t-5.5 -59
q0 -29 5.5 -57t19 -50t36 -35.5t56.5 -13.5q44 0 71.5 28.5t31.5 70.5h146v0z" />
    <glyph glyph-name="sterling" unicode="&#xa3;" horiz-adv-x="588" 
d="M583 66q-34 -38 -77 -60.5t-95 -22.5q-36 0 -70 11t-69 19q-28 6 -52.5 8.5t-48 -0.5t-46.5 -12t-47 -26l-64 89q21 15 41.5 32.5t36.5 37.5t25.5 43.5t9.5 52.5q0 16 -3 32t-10 30h-107v100h70q-17 26 -28.5 56t-11.5 60q0 54 21.5 94t57 67t81.5 40.5t96 13.5
q121 0 188.5 -63t69.5 -185h-150q1 24 -5 47t-19 40t-33 27.5t-46 10.5q-43 0 -71.5 -20.5t-28.5 -66.5q0 -15 5 -30.5t12 -31.5t15 -31t14 -28h121v-100h-93q5 -12 7 -24.5t2 -26.5q0 -38 -19 -71t-49 -56q26 16 59 16q20 0 39.5 -5t39 -11t38.5 -11t38 -5q17 0 30.5 6.5
t24.5 16.5t20.5 22.5t17.5 24.5l63 -110v0z" />
    <glyph glyph-name="section" unicode="&#xa7;" horiz-adv-x="634" 
d="M441 241q0 25 -10.5 40.5t-27 25.5t-37 15.5l-40.5 10.5q-17 5 -35.5 8t-35.5 8q-26 -10 -44 -28.5t-18 -47.5q0 -25 10.5 -40.5t27 -25.5t36.5 -15.5l40 -10.5q18 -5 36 -8t36 -8q26 10 44 28.5t18 47.5zM615 -27q0 -57 -27 -95t-68.5 -60.5t-91.5 -31.5t-97 -9
q-50 0 -101 8.5t-92.5 31t-69 61t-31.5 97.5h165q5 -49 41 -74t83 -25q20 0 40.5 4t37 13t27 25t10.5 40q0 20 -15 35t-38.5 26.5t-52.5 19.5t-57.5 14t-53 10.5t-39.5 9.5q-34 10 -64.5 24.5t-53 35.5t-35.5 50t-13 69q0 94 72 153q-37 26 -54.5 58t-17.5 78q0 57 27 94.5
t68.5 60t91.5 32t97 9.5q50 0 100.5 -8.5t92.5 -31t69.5 -61t31.5 -97.5h-165q-5 50 -41.5 74.5t-83.5 24.5q-20 0 -40 -4t-36.5 -13t-27 -25t-10.5 -40q0 -20 15 -35t38.5 -26.5t52.5 -19.5t57 -14l52.5 -11t39.5 -9q34 -10 64.5 -24.5t53 -35.5t36 -50t13.5 -69
q0 -48 -18 -85.5t-54 -67.5q37 -26 54.5 -58t17.5 -78z" />
    <glyph glyph-name="bullet" unicode="&#x2022;" horiz-adv-x="386" 
d="M349 360q0 -33 -12.5 -61.5t-33.5 -49.5t-49.5 -33.5t-60.5 -12.5q-33 0 -61.5 12.5t-49.5 33.5t-33 49.5t-12 61.5t12 61.5t33 49.5t49.5 33t61.5 12q32 0 60.5 -12t49.5 -33t33.5 -49.5t12.5 -61.5z" />
    <glyph glyph-name="paragraph" unicode="&#xb6;" 
d="M441 -206v844h-74v-844h-107v568q-107 0 -165 47.5t-58 127.5q0 52 18 87.5t50 56.5t76 30t96 9h271v-926h-107z" />
    <glyph glyph-name="germandbls" unicode="&#xdf;" horiz-adv-x="611" 
d="M574 217q0 -52 -17 -93t-47 -69.5t-72 -44t-93 -15.5q-39 0 -76 6v119q20 -5 37 -5q54 0 84.5 31.5t30.5 85.5q0 34 -11 56.5t-29.5 36t-44 18.5t-54.5 5h-13v87h10q22 0 42.5 4t36.5 14t25 28t9 45q0 42 -25.5 64t-66.5 22q-50 0 -71 -30.5t-21 -76.5v-505h-154v492
q0 114 63.5 179t178.5 65q43 0 85.5 -11t76.5 -34t55.5 -58.5t21.5 -84.5q0 -54 -23.5 -90.5t-71.5 -59.5q34 -4 59 -21t41.5 -42.5t25 -56t8.5 -61.5z" />
    <glyph glyph-name="registered" unicode="&#xae;" horiz-adv-x="451" 
d="M267 586q0 17 -13.5 21t-27.5 4h-35v-54h40q16 0 26 6t10 23zM308 582q0 -27 -14.5 -39t-35.5 -14l48 -84h-42l-45 81h-27v-81h-39v197h74q39 0 60 -13t21 -47zM362 545q0 28 -10.5 53.5t-29 44t-43.5 29.5t-54 11t-53.5 -11t-43.5 -29.5t-29.5 -44t-10.5 -53.5
q0 -29 10.5 -54t29.5 -43.5t43.5 -29.5t53.5 -11t54 11t43.5 29.5t29 43.5t10.5 54zM414 545q0 -39 -15 -73t-40.5 -59.5t-60 -40t-73.5 -14.5t-73.5 14.5t-60 40t-40 59.5t-14.5 73t14.5 73t40 59.5t60 40t73.5 14.5t73.5 -14.5t60 -40t40.5 -59.5t15 -73z" />
    <glyph glyph-name="copyright" unicode="&#xa9;" horiz-adv-x="822" 
d="M597 304q-14 -79 -63.5 -119.5t-115.5 -40.5q-47 0 -85 16.5t-65 45t-41.5 68t-14.5 84.5q0 46 14 85t40 67.5t64 45t85 16.5q69 0 117.5 -38.5t61.5 -116.5h-77q-8 36 -34.5 54t-64.5 18q-57 0 -88 -36t-31 -93q0 -58 32.5 -96t85.5 -38q37 0 64.5 18t34.5 60h80h1z
M687 360q0 58 -21.5 109t-58.5 89.5t-87.5 60.5t-108.5 22t-108.5 -22t-87.5 -60.5t-58.5 -89.5t-21.5 -109t21.5 -109t58.5 -89.5t87.5 -60.5t108.5 -22t108.5 22t87.5 60.5t58.5 89.5t21.5 109zM785 360q0 -78 -29.5 -146t-80 -118.5t-118.5 -80t-146 -29.5t-146 29.5
t-118.5 80t-80 118.5t-29.5 146t29.5 146t80 118.5t118.5 80t146 29.5t146 -29.5t118.5 -80t80 -118.5t29.5 -146z" />
    <glyph glyph-name="trademark" unicode="&#x2122;" horiz-adv-x="893" 
d="M252 640v-316h-96v316h-19q-21 0 -28.5 -7.5t-7.5 -25.5l-64 32q0 15 2.5 29.5t10 26t22.5 18.5t39 7h260v-80h-119zM744 324v263q0 11 -1.5 23t-6 21.5t-12.5 16t-22 6.5t-22 -6.5t-12 -16t-5.5 -21.5t-1.5 -23v-263h-95v263q0 12 -1.5 23.5t-6 21.5t-12.5 16t-22 6
t-22 -6.5t-12 -16t-5.5 -21.5t-1.5 -23v-263h-96v272q0 67 35.5 100t101.5 33q26 0 49 -6.5t40 -20.5q18 14 40.5 20.5t48.5 6.5q67 0 102 -33t35 -100v-272h-95z" />
    <glyph glyph-name="acute" unicode="&#xb4;" horiz-adv-x="0" 
d="M277 568h-106l108 148h164z" />
    <glyph glyph-name="dieresis" unicode="&#xa8;" horiz-adv-x="0" 
d="M519 632q0 -19 -8 -34t-21.5 -25.5t-30.5 -16t-34 -5.5t-34 5.5t-30.5 16t-21.5 25.5t-8 34t8 34t21.5 25.5t30.5 16t34 5.5t34 -5.5t30.5 -16t21.5 -25.5t8 -34zM283 632q0 -19 -8 -34t-21.5 -25.5t-30.5 -16t-34 -5.5t-34 5.5t-30 16t-21 25.5t-8 34t8 34t21 25.5
t30 16t34 5.5t34 -5.5t30.5 -16t21.5 -25.5t8 -34z" />
    <glyph glyph-name="notequal" unicode="&#x2260;" horiz-adv-x="595" 
d="M45 300v120h505v-120h-505z" />
    <glyph glyph-name="AE" unicode="&#xc6;" horiz-adv-x="926" 
d="M378 479q0 21 -2.5 43t-10.5 40t-23.5 30t-40.5 12q-26 0 -41 -12t-23 -30t-10.5 -40t-2.5 -43v-53h154v53zM378 0v294h-154v-294h-170v495q0 122 63 182t184 60q111 0 171 -55v38h400v-142h-324v-152h291v-132h-291v-152h333v-142h-503z" />
    <glyph glyph-name="Oslash" unicode="&#xd8;" horiz-adv-x="782" 
d="M575 357q0 39 -7.5 72t-21.5 59l-282 -311q26 -29 59 -42.5t68 -13.5q34 0 66.5 13t58.5 41t42.5 73t16.5 109zM520 534q-27 31 -60.5 45t-68.5 14q-34 0 -67 -13t-59 -41t-42 -73t-16 -109q0 -41 8 -75t22 -60l283 313v-1zM745 357q0 -80 -25 -148.5t-71 -118.5
t-111.5 -78.5t-146.5 -28.5q-70 0 -127.5 21.5t-101.5 59.5l-82 -91l-37 35l83 91q-43 50 -66 115.5t-23 142.5q0 80 25 148.5t71 118.5t111.5 78.5t146.5 28.5q71 0 129 -21.5t103 -61.5l78 85l38 -32l-80 -88q41 -49 63.5 -114t22.5 -142z" />
    <glyph glyph-name="infinity" unicode="&#x221e;" horiz-adv-x="228" 
d="M54 0v264h120v-264h-120zM54 456v264h120v-264h-120z" />
    <glyph glyph-name="plusminus" unicode="&#xb1;" horiz-adv-x="595" 
d="M45 107v120h505v-120h-505zM357 383v-110h-119v110h-193v120h192v110h120v-110h193v-120h-193z" />
    <glyph glyph-name="lessequal" unicode="&#x2264;" horiz-adv-x="638" 
d="M627 218q0 -65 -27 -110t-70.5 -72.5t-98 -40t-110.5 -12.5q-25 0 -58 4t-67.5 15t-67.5 29t-59 47t-42 69t-16 94h170q0 -73 42.5 -104t111.5 -31q21 0 42.5 5t39 16t29 29.5t11.5 44.5q0 24 -11 39t-33.5 26.5t-55.5 21l-78 21.5l-86 25t-77.5 34.5t-56.5 55.5t-22 88
q0 60 23.5 102.5t62.5 70t89 40t102 12.5q57 0 107.5 -12t89.5 -39.5t63 -71.5t27 -108h-162q2 29 -8.5 49.5t-28.5 33.5t-41.5 19t-47.5 6q-18 0 -38.5 -3.5t-37.5 -12.5t-28 -24.5t-11 -38.5q1 -27 20 -43.5t49.5 -28t69 -20.5l78.5 -19q41 -11 79 -25.5t67.5 -37.5
t47.5 -57.5t18 -85.5zM386 771h-127l-120 147h116l67 -88l68 88h115z" />
    <glyph glyph-name="greaterequal" unicode="&#x2265;" horiz-adv-x="537" 
d="M514 160q0 -50 -22 -83t-57 -53t-78.5 -28.5t-87.5 -8.5q-47 0 -91 10t-78 32.5t-55 57.5t-22 85h147q2 -46 31 -67t73 -21q15 0 31 3t29.5 10t22.5 18.5t9 28.5t-7 28t-22 19t-39 14t-58 12q-50 9 -88 21.5t-63.5 31t-38.5 44t-13 60.5q0 42 20 72t52 49t73 27.5t82 8.5
q42 0 84 -7.5t75 -26.5t54 -51t23 -80h-140q-1 19 -8.5 33.5t-20.5 24t-29 14.5t-34 5q-43 0 -63.5 -17t-20.5 -40q0 -21 24 -34.5t56 -22.5t65 -14.5t50 -10.5q26 -8 50.5 -19t43 -27.5t30 -40.5t11.5 -57zM333 575h-127l-119 146h115l68 -88l67 88h116z" />
    <glyph glyph-name="yen" unicode="&#xa5;" 
d="M548 580q0 -98 -41 -155.5t-121 -75.5v-51h149v-97h-149v-50h149v-97h-149v-54h-170v54h-149v97h149v50h-149v97h149v51q-162 38 -162 231v140h170v-124q0 -21 2.5 -43t10.5 -40t23 -30t41 -12t41 12t23 30.5t10.5 40.5t2.5 42v124h170v-140v0z" />
    <glyph glyph-name="mu" unicode="&#xb5;" horiz-adv-x="611" 
d="M403 0v74q-18 -33 -45 -52.5t-60 -24.5q-26 -5 -48.5 -1t-41.5 14v-216h-154v724h153v-289q0 -23 4 -44.5t14 -38t27.5 -26t44.5 -9.5q28 0 48 10.5t33 28t19 40.5t6 49v279h154v-518h-154z" />
    <glyph glyph-name="partialdiff" unicode="&#x2202;" horiz-adv-x="611" 
d="M557 15q0 -42 -10 -84.5t-37.5 -76.5t-77.5 -55.5t-131 -21.5q-45 0 -88 7.5t-77.5 27t-58 52.5t-29.5 83h152q7 -33 35 -55t61 -22q30 0 50 12t33 31.5t18.5 43.5t5.5 48v69q-30 -47 -71.5 -67t-98.5 -20q-40 0 -73 12.5t-56.5 36t-36.5 56t-13 73.5v353h153v-289
q0 -23 4 -44.5t14 -38t27.5 -26t44.5 -9.5q28 0 48 10.5t33 28t19 40.5t6 49v279h154v-504v1zM292 573h-106l107 148h164z" />
    <glyph glyph-name="summation" unicode="&#x2211;" horiz-adv-x="636" 
d="M639 144q0 -26 -4 -52t-18 -46.5t-40 -33t-70 -12.5h-489v136l379 442h-353v142h575v-127l-381 -451h222q39 0 53 14t14 46l112 -58v0zM391 771h-126l-120 147h115l68 -88l68 88h115z" />
    <glyph glyph-name="product" unicode="&#x220f;" horiz-adv-x="605" 
d="M407 388q0 29 -9.5 47.5t-26.5 29.5t-40.5 15t-50.5 4h-56v-196h46q27 0 51.5 4t43.5 15t30.5 30.5t11.5 50.5zM568 394q0 -60 -20 -105t-55 -75t-84.5 -44.5t-107.5 -14.5h-77v-155h-170v720h170v-94h93q67 0 115 -21t78 -54t44 -74.5t14 -82.5z" />
    <glyph glyph-name="pi" unicode="&#x3c0;" horiz-adv-x="671" 
d="M480 256q0 35 -8 64.5t-25 51.5t-45.5 34t-68.5 12q-18 0 -39.5 -6t-41 -17.5t-32.5 -27.5t-13 -36v-132q0 -24 12.5 -42t31 -31t41.5 -19.5t44 -6.5q76 0 110 42t34 114zM634 256q0 -59 -20 -108.5t-56 -85t-85 -55.5t-107 -20q-48 0 -88.5 14.5t-69.5 40.5v-248h-154
v926h153v-240q31 26 71 38.5t85 12.5q60 0 109.5 -20.5t85.5 -57t56 -87t20 -110.5z" />
    <glyph glyph-name="integral" unicode="&#x222b;" horiz-adv-x="746" 
d="M451 771h-126l-120 147h115l68 -88l68 88h115zM709 280q-2 -66 -28 -121t-69 -94t-100.5 -60.5t-122.5 -21.5q-83 0 -148 29t-110.5 79t-69.5 118.5t-24 148.5q0 81 24 150.5t70 120t111.5 79.5t149.5 29q64 0 119.5 -17.5t97.5 -51.5t68 -84.5t32 -116.5h-166
q-4 30 -17.5 54t-34.5 41.5t-47.5 27t-55.5 9.5q-50 0 -84 -22t-56 -56.5t-31.5 -77t-9.5 -84.5t9.5 -84t30.5 -76.5t55 -56t83 -21.5q36 0 63.5 12.5t46.5 34t31 50.5t17 62h166v0z" />
    <glyph glyph-name="ordfeminine" unicode="&#xaa;" horiz-adv-x="442" 
d="M293 612q0 12 -7.5 21t-19 15.5t-24.5 10t-23 3.5q-48 0 -67.5 -26.5t-19.5 -68.5t20 -66.5t65 -24.5q13 0 26.5 3.5t24.5 11t18 18t7 24.5v79zM293 414v22q-38 -30 -94 -30q-35 0 -64.5 12t-51.5 33.5t-34 51t-12 64.5q0 36 12 66.5t34 52t52 34t66 12.5q26 0 49.5 -6.5
t42.5 -20.5v19h95v-310h-95z" />
    <glyph glyph-name="ordmasculine" unicode="&#xba;" horiz-adv-x="404" 
d="M273 569q0 16 -3.5 32.5t-12 30t-22 22t-33.5 8.5t-34 -8.5t-22 -22t-11.5 -30t-3.5 -32.5t3.5 -32.5t11.5 -30t22 -22.5t34 -9t33.5 9t22 22.5t12 30t3.5 32.5zM367 569q0 -32 -10 -61.5t-30.5 -52t-51.5 -36t-73 -13.5t-73 13.5t-51.5 36t-30.5 52t-10 61.5t10 61.5
t30.5 52t51.5 36t73 13.5t73 -13.5t51.5 -36t30.5 -52t10 -61.5z" />
    <glyph glyph-name="Omega" unicode="&#x2126;" horiz-adv-x="519" 
d="M519 118q0 -22 -3.5 -43t-15 -37.5t-33 -27t-57.5 -10.5h-396v121l272 284h-249v113h445v-120l-268 -285h159q34 0 45.5 12.5t11.5 38.5l89 -46v0zM323 575h-127l-119 146h115l68 -88l67 88h116z" />
    <glyph glyph-name="ae" unicode="&#xe6;" horiz-adv-x="1021" 
d="M464 331q0 20 -13 36t-32.5 27.5t-41 17.5t-39.5 6q-41 0 -69 -12t-45 -34t-25 -51.5t-8 -64.5q0 -72 34 -114t110 -42q21 0 43.5 6.5t41.5 19.5t31 31t12 42zM826 364q-11 26 -34 40t-55 14q-29 0 -50 -10t-35.5 -26.5t-22 -38.5t-9.5 -46v-9l206 76v0zM984 199
q-7 -51 -28.5 -90.5t-55 -66.5t-76.5 -41t-93 -14q-47 0 -85 16t-66 43v-46h-116v42q-30 -26 -70.5 -40.5t-88.5 -14.5q-58 0 -107 20t-85 55.5t-56 85t-20 108.5q0 60 20 110.5t56 87t85.5 57t109.5 20.5q45 0 85 -12.5t70 -38.5v38h116v-49q29 28 67.5 45t87.5 17
q47 0 90.5 -12.5t77 -37.5t55.5 -62.5t27 -87.5l-362 -132q8 -42 34.5 -70.5t77.5 -28.5q44 0 71.5 28.5t31.5 70.5h147v0z" />
    <glyph glyph-name="oslash" unicode="&#xf8;" horiz-adv-x="614" 
d="M424 259q0 43 -16 81l-183 -203q14 -17 34 -27t48 -10q34 0 56.5 14.5t36 37.5t19 51t5.5 56zM390 380q-14 17 -34 27.5t-49 10.5q-34 0 -56.5 -14.5t-36 -37.5t-19 -51t-5.5 -56q0 -21 4 -42.5t12 -40.5l183 204h1zM577 259q0 -54 -16.5 -103t-49.5 -86.5t-84 -60
t-120 -22.5q-52 0 -93.5 14t-73.5 38l-55 -63l-31 28l55 61q-37 38 -54.5 88t-17.5 106q0 54 16.5 103t49.5 86.5t84 60t120 22.5q53 0 95 -14t74 -39l48 56l30 -27l-48 -54q36 -38 53.5 -87.5t17.5 -106.5z" />
    <glyph glyph-name="questiondown" unicode="&#xbf;" horiz-adv-x="586" 
d="M549 239q-2 -48 -17.5 -93.5t-47.5 -80.5t-81 -56t-117 -21q-65 0 -112 17.5t-77 45.5t-44.5 63t-15.5 70q-1 44 11 72.5t30.5 47.5t41.5 32t44 27q20 13 32.5 24.5t20 25t10.5 30t3 38.5v63h144v-62q0 -20 -1 -44.5t-8.5 -49.5t-23 -49t-44.5 -42q-10 -7 -26 -15
t-31 -20t-26 -28.5t-11 -38.5q0 -36 23.5 -55.5t63.5 -19.5q52 0 76 34.5t21 84.5h162v0zM396 650q0 -19 -8 -34t-21.5 -25.5t-30.5 -16t-34 -5.5t-34 5.5t-30.5 16t-21.5 25.5t-8 34q0 18 8 33t21.5 25.5t30.5 16.5t34 6t34 -6t30.5 -16.5t21.5 -25.5t8 -33z" />
    <glyph glyph-name="exclamdown" unicode="&#xa1;" horiz-adv-x="262" 
d="M42 0l49 531h79l50 -531h-178zM225 651q0 -19 -8 -34t-21.5 -25.5t-30.5 -16t-34 -5.5t-34 5.5t-30.5 16t-21.5 25.5t-8 34q0 18 8 33t21.5 25.5t30.5 16.5t34 6t34 -6t30.5 -16.5t21.5 -25.5t8 -33z" />
    <glyph glyph-name="logicalnot" unicode="&#xac;" horiz-adv-x="262" 
d="M208 409v-409h-154v290l-54 -43v82l54 43v348h153v-229l55 43v-82z" />
    <glyph glyph-name="radical" unicode="&#x221a;" horiz-adv-x="614" 
d="M424 251q0 28 -6.5 54.5t-20.5 47t-36 33t-54 12.5t-54.5 -12.5t-36.5 -33t-20 -47t-6 -54.5t6 -55t19.5 -48.5t36 -34.5t54.5 -13t54.5 13t36.5 34.5t20.5 48.5t6.5 55zM577 285q0 -65 -17 -119.5t-50.5 -94t-84.5 -62t-119 -22.5q-61 0 -110.5 17.5t-85 51t-54.5 82
t-19 110.5q0 54 17 100t48.5 79t76.5 52t100 19q29 0 58.5 -7.5t51.5 -24.5q-19 30 -45.5 57.5t-53.5 50.5l-77 -42l-58 62l62 35q-11 11 -22 20t-24 17l110 65q3 -2 11.5 -7t17.5 -11.5l17 -12.5t11 -8l69 39l61 -62l-62 -34q75 -70 123 -157.5t48 -192.5z" />
    <glyph glyph-name="florin" unicode="&#x192;" horiz-adv-x="384" 
d="M410 613q-18 3 -44 3q-33 0 -52.5 -13.5t-27.5 -54.5l-6 -30h104l-28 -107h-104l-117 -478q-12 -47 -32.5 -75t-46 -42.5t-54 -19t-56.5 -4.5l-31 120q34 0 52 15t28 57l104 427h-104l25 96h104l22 88q12 47 32 75t45.5 42.5t54.5 19t57 4.5q29 0 55 -2.5t51 -2.5z" />
    <glyph glyph-name="approxequal" unicode="&#x2248;" horiz-adv-x="476" 
d="M390 122l-152 154l-153 -154l-85 85l153 153l-153 153l84 85l153 -154l154 154l85 -84l-154 -154l154 -153z" />
    <glyph glyph-name="Delta" unicode="&#x2206;" horiz-adv-x="594" 
d="M373 575h-127l-119 146h115l68 -88l67 88h116zM557 199q-6 -51 -27.5 -90.5t-55 -66.5t-76.5 -41t-93 -14q-59 0 -108 20t-84.5 56t-55.5 85t-20 108t20 109.5t55.5 87t85.5 57.5t110 21q47 0 90 -12.5t77 -37.5t55.5 -62.5t26.5 -87.5h-146q-5 42 -32 64.5t-68 22.5
q-36 0 -59.5 -14t-37 -37t-19 -52t-5.5 -59q0 -29 5.5 -57t19 -50t36 -35.5t57.5 -13.5q43 0 71 28.5t32 70.5h146v0z" />
    <glyph glyph-name="guillemotleft" unicode="&#xab;" horiz-adv-x="409" 
d="M45 292v136l148 132v-124l-79 -76l79 -73v-127zM216 292v136l148 132v-124l-79 -76l79 -73v-127z" />
    <glyph glyph-name="guillemotright" unicode="&#xbb;" horiz-adv-x="409" 
d="M45 160v124l79 76l-79 73v127l148 -132v-136zM216 160v124l79 76l-79 73v127l148 -132v-136z" />
    <glyph glyph-name="ellipsis" unicode="&#x2026;" horiz-adv-x="1000" 
d="M261 72q0 -18 -8 -33t-21.5 -25.5t-30.5 -16.5t-34 -6t-34 6t-30.5 16.5t-21.5 25.5t-8 33q0 19 8 34t21.5 25.5t30.5 16t34 5.5t34 -5.5t30.5 -16t21.5 -25.5t8 -34zM594 72q0 -18 -8 -33t-21.5 -25.5t-30.5 -16.5t-34 -6t-34 6t-30.5 16.5t-21.5 25.5t-8 33q0 19 8 34
t21.5 25.5t30.5 16t34 5.5t34 -5.5t30.5 -16t21.5 -25.5t8 -34zM927 72q0 -18 -8 -33t-21.5 -25.5t-30.5 -16.5t-34 -6t-34 6t-30.5 16.5t-21.5 25.5t-8 33q0 19 8 34t21.5 25.5t30.5 16t34 5.5t34 -5.5t30.5 -16t21.5 -25.5t8 -34z" />
    <glyph glyph-name="Agrave" unicode="&#xc0;" 
d="M378 479q0 21 -2.5 43t-10.5 40t-23.5 30t-40.5 12q-26 0 -41 -12t-23 -30t-10.5 -40t-2.5 -43v-53h154v53zM378 0v294h-154v-294h-170v495q0 122 63 182t184 60q124 0 185.5 -61t61.5 -180v-496h-170zM326 764l-163 148h163l107 -148h-107z" />
    <glyph glyph-name="Atilde" unicode="&#xc3;" 
d="M378 479q0 21 -2.5 43t-10.5 40t-23.5 30t-40.5 12q-26 0 -41 -12t-23 -30t-10.5 -40t-2.5 -43v-53h154v53zM378 0v294h-154v-294h-170v495q0 122 63 182t184 60q124 0 185.5 -61t61.5 -180v-496h-170zM492 896q-1 -25 -8 -47.5t-20 -39t-32 -26.5t-44 -10q-22 0 -42 6.5
t-38 14.5t-35 14.5t-33 6.5q-18 0 -29.5 -15.5t-13.5 -31.5h-64q0 20 5 42t17 41t31.5 31t47.5 12q21 0 42.5 -7t41 -15t35 -15t26.5 -7q18 0 30 10.5t16 35.5h67v0z" />
    <glyph glyph-name="Otilde" unicode="&#xd5;" horiz-adv-x="782" 
d="M575 360q0 43 -10.5 85.5t-32.5 76.5t-57 55.5t-84 21.5q-50 0 -84.5 -21.5t-57 -55.5t-32.5 -76.5t-10 -85.5t10 -85.5t32.5 -76.5t57 -55.5t84.5 -21.5q49 0 84 21.5t57 55.5t32 76.5t10 85.5h1zM745 360q0 -79 -24.5 -148t-70.5 -120t-111.5 -80t-147.5 -29t-147.5 29
t-111.5 80t-70.5 120t-24.5 148t24.5 148t70.5 120t111.5 80t147.5 29t147.5 -29t111.5 -80t70.5 -120t24.5 -148zM586 896q-1 -25 -8 -47.5t-20.5 -39t-32.5 -26.5t-44 -10q-22 0 -42 6.5t-38 14.5t-35 14.5t-33 6.5q-17 0 -28.5 -15.5t-13.5 -31.5h-65q0 20 5.5 42
t17.5 41t31.5 31t46.5 12q22 0 43.5 -7t40.5 -15l35 -15t27 -7q17 0 29.5 10.5t16.5 35.5h67v0z" />
    <glyph glyph-name="OE" unicode="&#x152;" horiz-adv-x="1090" 
d="M543 467q-4 30 -17.5 54t-34.5 41.5t-47.5 27t-55.5 9.5q-50 0 -84 -22t-56 -56.5t-31.5 -77t-9.5 -84.5t9.5 -84t30.5 -76.5t55 -56t83 -21.5q36 0 63.5 12.5t46.5 34t31 50.5t17 62v187zM565 0v56q-32 -33 -76 -53t-100 -20q-83 0 -148 29t-110.5 79t-69.5 118.5
t-24 148.5q0 81 24 150.5t70 120t111.5 79.5t149.5 29q49 0 95 -14.5t78 -40.5v38h479v-142h-324v-152h292v-132h-292v-152h333v-142h-488z" />
    <glyph glyph-name="oe" unicode="&#x153;" horiz-adv-x="981" 
d="M424 259q0 27 -5.5 55.5t-19 51.5t-36 37.5t-56.5 14.5t-56.5 -14.5t-36 -37.5t-19 -51t-5.5 -56q0 -27 5.5 -55.5t19 -51.5t36 -37.5t56.5 -14.5t56.5 14.5t36 37.5t19 51t5.5 56zM786 363q-11 26 -34 40t-54 14q-30 0 -51 -9.5t-34.5 -26t-21 -38.5t-10.5 -46
q-1 -1 -1 -4v-5l206 75v0zM944 199q-6 -51 -28 -90.5t-55 -66.5t-76.5 -41t-92.5 -14q-62 0 -109.5 24t-79.5 64q-31 -39 -79.5 -63.5t-116.5 -24.5q-69 0 -120 22.5t-84 60t-49.5 86.5t-16.5 103t16.5 103t49.5 86.5t84 60t120 22.5t117.5 -25.5t79.5 -65.5q32 42 79.5 66
t110.5 24q47 0 90.5 -12.5t77.5 -37t55.5 -62t26.5 -87.5l-362 -132q8 -42 34.5 -70.5t77.5 -28.5q44 0 72 28.5t31 70.5h147v0z" />
    <glyph glyph-name="endash" unicode="&#x2013;" horiz-adv-x="590" 
d="M45 205v124h500v-123z" />
    <glyph glyph-name="emdash" unicode="&#x2014;" horiz-adv-x="1090" 
d="M45 205v124h1000v-123z" />
    <glyph glyph-name="quotedblleft" unicode="&#x201c;" horiz-adv-x="467" 
d="M170 377l-170 295l104 60l170 -295zM363 377l-170 295l103 60l171 -295z" />
    <glyph glyph-name="quotedblright" unicode="&#x201d;" horiz-adv-x="467" 
d="M104 377l-104 60l170 295l104 -60zM296 377l-103 60l170 295l104 -60z" />
    <glyph glyph-name="quoteleft" unicode="&#x2018;" horiz-adv-x="274" 
d="M170 377l-170 295l104 60l170 -295z" />
    <glyph glyph-name="quoteright" unicode="&#x2019;" horiz-adv-x="274" 
d="M104 377l-104 60l170 295l104 -60z" />
    <glyph glyph-name="divide" unicode="&#xf7;" horiz-adv-x="595" 
d="M384 152q0 -36 -24.5 -61.5t-61.5 -25.5q-38 0 -62 25.5t-24 61.5t25 61t61 25q18 0 33.5 -6.5t27 -18.5t18.5 -27.5t7 -33.5zM45 300v120h505v-120h-505zM384 568q0 -36 -24.5 -61t-61.5 -25t-61.5 25t-24.5 61t25 61.5t61 25.5t61 -25.5t25 -61.5z" />
    <glyph glyph-name="lozenge" unicode="&#x25ca;" horiz-adv-x="666" 
d="M459 363q0 48 -12.5 88t-38 68t-63.5 43.5t-88 15.5h-33v-158h129v-97h-129v-181h39q51 0 88 17t61 46.5t35.5 70t11.5 87.5zM629 361q0 -86 -23.5 -153t-69 -113t-112.5 -70.5t-153 -24.5h-217v323h-56v96h56v301h257q82 0 142 -27.5t99 -76t58 -114t19 -141.5z" />
    <glyph glyph-name="ydieresis" unicode="&#xff;" horiz-adv-x="611" 
d="M557 15q0 -42 -10 -84.5t-37.5 -76.5t-77.5 -55.5t-131 -21.5q-45 0 -88 7.5t-77.5 27t-58 52.5t-29.5 83h152q7 -33 35 -55t61 -22q30 0 50 12t33 31.5t18.5 43.5t5.5 48v69q-30 -47 -71.5 -67t-98.5 -20q-40 0 -73 12.5t-56.5 36t-36.5 56t-13 73.5v353h153v-289
q0 -23 4 -44.5t14 -38t27.5 -26t44.5 -9.5q28 0 48 10.5t33 28t19 40.5t6 49v279h154v-504v1zM284 637q0 -18 -8 -33t-21 -25.5t-30 -16.5t-34 -6t-34 6t-30.5 16.5t-21.5 25.5t-8 33q0 19 8 34t21.5 25.5t30.5 16.5t34 6t34 -6t30 -16.5t21 -25.5t8 -34zM520 637
q0 -18 -8 -33t-21.5 -25.5t-30.5 -16.5t-34 -6t-34 6t-30 16.5t-21 25.5t-8 33q0 19 8 34t21 25.5t30 16.5t34 6t34 -6t30.5 -16.5t21.5 -25.5t8 -34z" />
    <glyph glyph-name="Ydieresis" unicode="&#x178;" 
d="M548 535q0 -98 -41 -155.5t-121 -75.5v-304h-170v304q-162 38 -162 231v185h170v-169q0 -21 2.5 -43t10.5 -40t23 -30t41 -12t41 12t23 30.5t10.5 40.5t2.5 42v169h170v-185v0zM277 828q0 -18 -8 -33t-21.5 -25.5t-30.5 -16.5t-34 -6t-33.5 6t-30 16.5t-21.5 25.5t-8 33
q0 19 8 34t21.5 25.5t30 16t33.5 5.5t34 -5.5t30.5 -16t21.5 -25.5t8 -34zM513 828q0 -18 -8 -33t-21.5 -25.5t-30.5 -16.5t-34 -6t-34 6t-30.5 16.5t-21.5 25.5t-8 33q0 19 8 34t21.5 25.5t30.5 16t34 5.5t34 -5.5t30.5 -16t21.5 -25.5t8 -34z" />
    <glyph glyph-name="fraction" unicode="&#x2044;" horiz-adv-x="167" 
d="M-70 0h-88l394 720h89z" />
    <glyph glyph-name="currency" unicode="&#xa4;" horiz-adv-x="575" 
d="M425 346q0 32 -12 57.5t-31.5 43t-44 27t-50.5 9.5t-50.5 -9.5t-43.5 -27t-31 -43t-12 -57.5t11.5 -57t31 -43t44 -27.5t50.5 -9.5t50.5 9.5t44 27t31 43t11.5 57.5h1zM538 346q0 -42 -13.5 -81t-35.5 -63l58 -58l-59 -60l-59 60q-26 -24 -63 -36t-79 -12q-43 0 -80 11.5
t-64 34.5l-59 -58l-60 60l60 58q-20 23 -33.5 62.5t-13.5 81.5q0 43 13.5 81.5t33.5 61.5l-60 57l62 61l57 -57q23 20 62 33t82 13q42 0 80.5 -13t61.5 -33l58 57l60 -60l-58 -58q20 -23 34.5 -61.5t14.5 -81.5z" />
    <glyph glyph-name="guilsinglleft" unicode="&#x2039;" horiz-adv-x="238" 
d="M45 292v136l148 132v-124l-79 -76l79 -73v-127z" />
    <glyph glyph-name="guilsinglright" unicode="&#x203a;" horiz-adv-x="238" 
d="M45 160v124l79 76l-79 73v127l148 -132v-136z" />
    <glyph glyph-name="fi" unicode="&#xfb01;" horiz-adv-x="523" 
d="M316 0v411h-108v-411h-154v411h-54v96h54v88q0 47 13.5 75t35.5 42.5t49.5 19t55.5 4.5q29 0 55.5 -2.5t51.5 -2.5v-118q-18 3 -44 3q-17 0 -29.5 -2t-20 -9t-11 -19t-3.5 -33v-35h262v-518h-153z" />
    <glyph glyph-name="fl" unicode="&#xfb02;" horiz-adv-x="523" 
d="M316 0v613q-11 2 -22.5 2.5t-22.5 0.5q-34 0 -49 -13.5t-15 -54.5v-30h55v-107h-54v-411h-154v411h-54v96h54v88q0 47 13.5 75t35.5 42.5t49.5 19t55.5 4.5q26 0 53 -6.5t52 -6.5q43 -1 77 -1h79v-722h-153z" />
    <glyph glyph-name="daggerdbl" unicode="&#x2021;" horiz-adv-x="610" 
d="M374 32l17 -238h-172l17 238l-191 -17v141l191 -16v270l-191 -16v141l191 -17l-17 202h172l-17 -202l191 17v-141l-191 16v-270l191 16v-141z" />
    <glyph glyph-name="periodcentered" unicode="&#xb7;" horiz-adv-x="262" 
d="M225 360q0 -19 -8 -34t-21.5 -25.5t-30.5 -16t-34 -5.5t-34 5.5t-30.5 16t-21.5 25.5t-8 34t8 34t21.5 25.5t30.5 16t34 5.5t34 -5.5t30.5 -16t21.5 -25.5t8 -34z" />
    <glyph glyph-name="quotesinglbase" unicode="&#x201a;" horiz-adv-x="274" 
d="M104 -178l-104 60l170 295l104 -60z" />
    <glyph glyph-name="quotedblbase" unicode="&#x201e;" horiz-adv-x="468" 
d="M104 -178l-104 60l170 295l104 -60zM298 -178l-104 60l171 295l103 -60z" />
    <glyph glyph-name="perthousand" unicode="&#x2030;" 
d="M548 535q0 -98 -41 -155.5t-121 -75.5v-304h-170v304q-162 38 -162 231v185h170v-169q0 -21 2.5 -43t10.5 -40t23 -30t41 -12t41 12t23 30.5t10.5 40.5t2.5 42v169h170v-185v0zM288 770h-106l107 148h164z" />
    <glyph glyph-name="Acircumflex" unicode="&#xc2;" 
d="M371 765l-69 88l-66 -88h-116l119 147h127l120 -146zM378 479q0 21 -2.5 43t-10.5 40t-23.5 30t-40.5 12q-26 0 -41 -12t-23 -30t-10.5 -40t-2.5 -43v-53h154v53zM378 0v294h-154v-294h-170v495q0 122 63 182t184 60q124 0 185.5 -61t61.5 -180v-496h-170z" />
    <glyph glyph-name="Ecircumflex" unicode="&#xca;" 
d="M372 765l-69 88l-66 -88h-116l119 147h127l120 -146zM54 0v720h494v-142h-324v-152h292v-132h-292v-152h333v-142h-503z" />
    <glyph glyph-name="Aacute" unicode="&#xc1;" 
d="M278 764h-106l107 148h164zM378 479q0 21 -2.5 43t-10.5 40t-23.5 30t-40.5 12q-26 0 -41 -12t-23 -30t-10.5 -40t-2.5 -43v-53h154v53zM378 0v294h-154v-294h-170v495q0 122 63 182t184 60q124 0 185.5 -61t61.5 -180v-496h-170z" />
    <glyph glyph-name="Edieresis" unicode="&#xcb;" 
d="M511 828q0 -18 -8 -33t-21.5 -25.5t-30 -16.5t-33.5 -6t-34 6t-30.5 16.5t-21.5 25.5t-8 33q0 19 8 34t21.5 25.5t30.5 16t34 5.5t33.5 -5.5t30 -16t21.5 -25.5t8 -34zM276 828q0 -18 -8 -33t-21.5 -25.5t-30.5 -16.5t-34 -6t-34 6t-30.5 16.5t-21.5 25.5t-8 33
q0 19 8 34t21.5 25.5t30.5 16t34 5.5t34 -5.5t30.5 -16t21.5 -25.5t8 -34zM54 0v720h494v-142h-324v-152h292v-132h-292v-152h333v-142h-503z" />
    <glyph glyph-name="Egrave" unicode="&#xc8;" 
d="M152 912h163l106 -148h-106zM54 0v720h494v-142h-324v-152h292v-132h-292v-152h333v-142h-503z" />
    <glyph glyph-name="Iacute" unicode="&#xcd;" horiz-adv-x="278" 
d="M119 764h-106l107 148h164zM54 0v720h170v-720h-170z" />
    <glyph glyph-name="Icircumflex" unicode="&#xce;" horiz-adv-x="278" 
d="M209 765l-68 88l-67 -88h-115l119 147h126l121 -146zM54 0v720h170v-720h-170z" />
    <glyph glyph-name="Idieresis" unicode="&#xcf;" horiz-adv-x="278" 
d="M356 828q0 -18 -8 -33t-21.5 -25.5t-30 -16.5t-33.5 -6t-34 6t-30.5 16.5t-21.5 25.5t-8 33q0 19 8 34t21.5 25.5t30.5 16t34 5.5t33.5 -5.5t30 -16t21.5 -25.5t8 -34zM121 828q0 -18 -8 -33t-21.5 -25.5t-30.5 -16.5t-34 -6t-34 6t-30.5 16.5t-21.5 25.5t-8 33
q0 19 8 34t21.5 25.5t30.5 16t34 5.5t34 -5.5t30.5 -16t21.5 -25.5t8 -34zM54 0v720h170v-720h-170z" />
    <glyph glyph-name="Igrave" unicode="&#xcc;" horiz-adv-x="278" 
d="M-3 912h163l106 -148h-106zM54 0v720h170v-720h-170z" />
    <glyph glyph-name="Oacute" unicode="&#xd3;" horiz-adv-x="782" 
d="M374 764h-106l107 148h164zM575 360q0 43 -10.5 85.5t-32.5 76.5t-57 55.5t-84 21.5q-50 0 -84.5 -21.5t-57 -55.5t-32.5 -76.5t-10 -85.5t10 -85.5t32.5 -76.5t57 -55.5t84.5 -21.5q49 0 84 21.5t57 55.5t32 76.5t10 85.5h1zM745 360q0 -79 -24.5 -148t-70.5 -120
t-111.5 -80t-147.5 -29t-147.5 29t-111.5 80t-70.5 120t-24.5 148t24.5 148t70.5 120t111.5 80t147.5 29t147.5 -29t111.5 -80t70.5 -120t24.5 -148z" />
    <glyph glyph-name="Ocircumflex" unicode="&#xd4;" horiz-adv-x="782" 
d="M457 765l-69 88l-66 -88h-116l119 147h127l120 -146zM575 360q0 43 -10.5 85.5t-32.5 76.5t-57 55.5t-84 21.5q-50 0 -84.5 -21.5t-57 -55.5t-32.5 -76.5t-10 -85.5t10 -85.5t32.5 -76.5t57 -55.5t84.5 -21.5q49 0 84 21.5t57 55.5t32 76.5t10 85.5h1zM745 360
q0 -79 -24.5 -148t-70.5 -120t-111.5 -80t-147.5 -29t-147.5 29t-111.5 80t-70.5 120t-24.5 148t24.5 148t70.5 120t111.5 80t147.5 29t147.5 -29t111.5 -80t70.5 -120t24.5 -148z" />
    <glyph glyph-name="apple" unicode="&#xf8ff;" 
d="M602 144q0 -26 -4 -52t-18 -46.5t-40 -33t-69 -12.5h-417v217l-54 -38v104l54 37v400h170v-283l166 115v-103l-166 -115v-192h199q40 0 54 14t14 46l111 -58v0z" />
    <glyph glyph-name="Ograve" unicode="&#xd2;" horiz-adv-x="782" 
d="M209 912h163l107 -148h-107zM575 360q0 43 -10.5 85.5t-32.5 76.5t-57 55.5t-84 21.5q-50 0 -84.5 -21.5t-57 -55.5t-32.5 -76.5t-10 -85.5t10 -85.5t32.5 -76.5t57 -55.5t84.5 -21.5q49 0 84 21.5t57 55.5t32 76.5t10 85.5h1zM745 360q0 -79 -24.5 -148t-70.5 -120
t-111.5 -80t-147.5 -29t-147.5 29t-111.5 80t-70.5 120t-24.5 148t24.5 148t70.5 120t111.5 80t147.5 29t147.5 -29t111.5 -80t70.5 -120t24.5 -148z" />
    <glyph glyph-name="Uacute" unicode="&#xda;" 
d="M289 764h-106l107 148h164zM548 225q0 -122 -63 -182t-184 -60q-124 0 -185.5 61t-61.5 180v496h170v-479q0 -21 2.5 -43t10.5 -40t23 -30t41 -12t41 12t23 30t10.5 40t2.5 43v479h170v-495v0z" />
    <glyph glyph-name="Ucircumflex" unicode="&#xdb;" 
d="M366 765l-69 88l-66 -88h-116l119 147h127l120 -146zM548 225q0 -122 -63 -182t-184 -60q-124 0 -185.5 61t-61.5 180v496h170v-479q0 -21 2.5 -43t10.5 -40t23 -30t41 -12t41 12t23 30t10.5 40t2.5 43v479h170v-495v0z" />
    <glyph glyph-name="Ugrave" unicode="&#xd9;" 
d="M159 912h164l106 -148h-107zM548 225q0 -122 -63 -182t-184 -60q-124 0 -185.5 61t-61.5 180v496h170v-479q0 -21 2.5 -43t10.5 -40t23 -30t41 -12t41 12t23 30t10.5 40t2.5 43v479h170v-495v0z" />
    <glyph glyph-name="dotlessi" unicode="&#x131;" horiz-adv-x="262" 
d="M54 0v518h154v-518h-154z" />
    <glyph glyph-name="circumflex" unicode="&#x2c6;" horiz-adv-x="0" 
d="M375 569l-69 88l-66 -88h-116l119 147h127l120 -147h-115z" />
    <glyph glyph-name="tilde" unicode="&#x2dc;" horiz-adv-x="0" 
d="M487 700q-1 -25 -8 -47.5t-20 -39.5t-32 -27t-44 -10q-22 0 -42 6.5t-38 15t-35 15t-33 6.5q-18 0 -29.5 -16t-13.5 -31h-64q0 20 5 42t17 41t31.5 31t47.5 12q21 0 42.5 -7t41 -15.5l35 -15.5t26.5 -7q18 0 30 11t16 36h67v0z" />
    <glyph glyph-name="macron" unicode="&#xaf;" horiz-adv-x="0" 
d="M151 581v74h312v-74h-312z" />
    <glyph glyph-name="breve" unicode="&#x2d8;" horiz-adv-x="0" 
d="M474 718q-2 -35 -16.5 -61.5t-37 -44.5t-52.5 -27t-63 -9q-72 0 -116.5 36t-48.5 106h64q2 -18 12.5 -31.5t25.5 -22t32 -13t34 -4.5q35 0 65.5 16.5t36.5 54.5h64v0z" />
    <glyph glyph-name="dotaccent" unicode="&#x2d9;" horiz-adv-x="0" 
d="M401 632q0 -19 -8 -34t-21.5 -25.5t-30.5 -16t-34 -5.5t-34 5.5t-30.5 16t-21.5 25.5t-8 34t8 34t21.5 25.5t30.5 16t34 5.5t34 -5.5t30.5 -16t21.5 -25.5t8 -34z" />
    <glyph glyph-name="ring" unicode="&#x2da;" horiz-adv-x="0" 
d="M364 667q0 23 -17 39.5t-39 16.5q-23 0 -40 -16.5t-17 -39.5t16.5 -40t39.5 -17t39.5 17.5t16.5 39.5h1zM414 667q0 -21 -8.5 -40.5t-23 -34.5t-33.5 -23.5t-41 -8.5t-41.5 8.5t-34 23t-23 34t-8.5 41.5t8.5 41t23 33.5t34 23t40.5 8.5q22 0 41.5 -8.5t34 -23t23 -33.5
t8.5 -41z" />
    <glyph glyph-name="cedilla" unicode="&#xb8;" horiz-adv-x="0" 
d="M431 -133q0 -25 -11.5 -42t-29 -27t-39.5 -14t-43 -4q-37 0 -65 7t-59 18l18 40l40 -12.5t42 -6.5q20 0 39.5 8.5t19.5 32.5q0 18 -15.5 27t-30.5 9q-23 0 -43 -11l-23 21l56 87h49l-42 -63q9 4 20.5 5t22.5 1q18 0 34.5 -4.5t30 -13.5t21.5 -23.5t8 -34.5z" />
    <glyph glyph-name="hungarumlaut" unicode="&#x2dd;" horiz-adv-x="0" 
d="M170 568h-87l108 148h134zM376 568h-86l107 148h134z" />
    <glyph glyph-name="ogonek" unicode="&#x2db;" horiz-adv-x="0" 
d="M416 -147q-14 -38 -44.5 -51.5t-63.5 -13.5q-22 0 -42 4.5t-35 13.5t-24 22.5t-9 31.5q0 20 12 40t29 38.5t37 34.5l35 27h62q-52 -44 -71.5 -72.5t-19.5 -54.5q0 -19 11 -29.5t30 -10.5t29.5 6t15.5 17l48 -3v0z" />
    <glyph glyph-name="caron" unicode="&#x2c7;" horiz-adv-x="0" 
d="M370 575h-126l-120 146h115l68 -88l68 88h115z" />
    <glyph glyph-name="NULL" horiz-adv-x="0" 
 />
    </font>
</defs>
</svg>
