<?xml version="1.0" standalone="no"?>
<!DOCTYPE svg PUBLIC "-//W3C//DTD SVG 1.1//EN" "http://www.w3.org/Graphics/SVG/1.1/DTD/svg11.dtd" >
<svg xmlns="http://www.w3.org/2000/svg">
<metadata>Generated by IcoMoon</metadata>
<defs>
<font id="iconic_font" horiz-adv-x="1024">
<font-face units-per-em="1024" ascent="960" descent="-64" />
<missing-glyph horiz-adv-x="1024" />
<glyph unicode="&#x20;" horiz-adv-x="512" d="" />
<glyph unicode="&#xe900;" glyph-name="menu" d="M127.999 688.001c0 26.508 21.491 47.999 47.999 47.999v0h672.001c26.508 0 47.999-21.491 47.999-47.999s-21.491-47.999-47.999-47.999v0h-672.001c-26.508 0-47.999 21.491-47.999 47.999v0zM127.999 448c0 26.508 21.491 47.999 47.999 47.999v0h672.001c26.508 0 47.999-21.491 47.999-47.999s-21.491-47.999-47.999-47.999v0h-672.001c-26.508 0-47.999 21.491-47.999 47.999v0zM127.999 207.999c0 26.508 21.491 47.999 47.999 47.999v0h672.001c26.508 0 47.999-21.491 47.999-47.999s-21.491-47.999-47.999-47.999v0h-672.001c-26.508 0-47.999 21.491-47.999 47.999v0z" />
<glyph unicode="&#xe901;" glyph-name="tick" d="M145.256 846.078c-8.992-1.775-16.677-6.457-22.221-13.009l-0.047-0.057c-11.734-13.4-11 12.334-11-385.010 0-404.544-1.066-372.744 13.068-386.944 14.2-14.134-17.6-13.068 386.944-13.068 404.612 0 372.744-1.066 386.944 13.134 13.6 13.6 13.268 9.534 12.668 157.738l-0.466 130.47-4.334 8.666c-5.375 10.106-14.482 17.628-25.438 20.794l-0.296 0.072c-5.092 0.887-10.954 1.394-16.936 1.394-2.228 0-4.439-0.069-6.631-0.208l0.3 0.015c-22.334-1.066-32.6-6.734-41.134-22.734-3.134-5.8-3.334-12.6-3.866-108.004l-0.466-101.802h-600.816v600.884l470.28 0.934 7.066 3.8c17.734 9.534 25.668 29.668 22 55.734-2.334 16.534-8.666 26.134-21.934 32.868l-10.466 5.4-263.208 0.266c-150.738 0.134-266.14-0.4-270.008-1.334zM912.678 780.61c-5.438-2.749-10.125-5.945-14.34-9.663l0.072 0.063c-3.8-3.4-88.87-95.070-189.072-203.672l-182.206-197.472-69.336 69.202c-76.668 76.468-80.268 79.336-97.602 77.868-12.6-1.066-21.6-5.734-33.2-17.334-17.668-17.668-22.068-35-13.268-52.602 6.334-12.668 186.738-192.806 198.272-198.006 16.868-7.6 33.734-3.266 50.868 13.068 14.668 14.068 402.344 434.746 408.544 443.412 15.4 21.534 12.468 43.002-8.4 61.868-17.468 15.734-34.8 20.334-50.334 13.268z" />
<glyph unicode="&#xe902;" glyph-name="cancel" d="M981.333 642.404v-388.808l-274.929-274.929h-388.808l-274.929 274.929v388.808l274.929 274.929h388.808l274.929-274.929zM671.058 832h-318.116l-224.942-224.942v-318.116l224.942-224.942h318.116l224.942 224.942v318.116l-224.942 224.942zM512 387.66l-140.497-140.497-60.34 60.34 140.497 140.497-140.497 140.497 60.34 60.34 140.497-140.497 140.497 140.497 60.34-60.34-140.497-140.497 140.497-140.497-60.34-60.34-140.497 140.497z" />
<glyph unicode="&#xe903;" glyph-name="attach" d="M512 21.333c-1.806-0.047-3.932-0.074-6.065-0.074-135.711 0-246.169 108.124-249.928 242.926l-0.008 0.347v433.92c2.597 97.891 82.57 176.255 180.847 176.255 1.371 0 2.739-0.015 4.103-0.046l-0.203 0.004c1.288 0.033 2.805 0.052 4.326 0.052 98.28 0 178.255-78.37 180.842-176.026l0.005-0.239v-434.347c-3.78-59.845-53.242-106.951-113.707-106.951s-109.927 47.106-113.69 106.622l-0.017 0.33v400.64c0 23.564 19.103 42.667 42.667 42.667v0c23.564 0 42.667-19.103 42.667-42.667v0-400.64c1.797-14.217 13.814-25.101 28.373-25.101s26.576 10.884 28.359 24.96l0.015 0.141v434.347c-2.752 50.807-44.62 90.962-95.868 90.962-1.397 0-2.787-0.030-4.17-0.089l0.197 0.007c-1.058 0.042-2.299 0.066-3.546 0.066-51.241 0-93.106-40.146-95.856-90.701l-0.011-0.244v-433.92c3.703-88.023 75.96-157.98 164.556-157.98 2.149 0 4.288 0.041 6.417 0.123l-0.307-0.009c1.822-0.072 3.961-0.113 6.11-0.113 88.597 0 160.854 69.957 164.545 157.646l0.011 0.334v433.92c0 23.564 19.103 42.667 42.667 42.667s42.667-19.103 42.667-42.667v0-433.92c-3.767-135.15-114.224-243.274-249.935-243.274-2.133 0-4.259 0.027-6.378 0.080l0.314-0.006z" />
<glyph unicode="&#xe904;" glyph-name="attach-from-storage" d="M810.667 149.333v85.333h85.333v-85.333h85.333v-85.333h-85.333v-85.333h-85.333v85.333h-85.333v85.333h85.333zM128 576h768v85.333l-384.228 0.001c-30.641 0.164-50.601 14.51-72.056 41.107-2.961 3.671-12.372 15.878-13.834 17.723-15.982 20.164-25.487 26.503-41.882 26.503h-256v-170.667zM896 490.667h-768v-341.333h469.333v-85.333h-469.333c-47.128 0-85.333 38.205-85.333 85.333v597.333c0 47.128 38.205 85.333 85.333 85.333h256c47.787 0 78.205-20.286 108.756-58.831 2.039-2.572 11.141-14.38 13.376-17.151 6.709-8.317 8.077-9.34 5.944-9.352h383.924c47.128 0 85.333-38.205 85.333-85.333v-341.333h-85.333v170.667z" />
<glyph unicode="&#xe905;" glyph-name="bold" d="M671.139 459.14c66.841 13.791 122.014 74.258 122.014 162.326 0 94.423-68.966 180.367-203.709 180.367h-339.836c-17.973 0-32.553-14.58-32.553-32.553v-642.55c0-17.973 14.58-32.553 32.553-32.553h351.512c135.797 0 205.823 84.882 205.823 192.033 0.010 88.048-59.404 161.264-135.797 172.93zM367.714 669.213h188.856c50.934 0 82.757-30.769 82.757-74.258 0-45.614-31.831-74.268-82.757-74.268h-188.856v148.525zM562.916 226.787h-195.21v161.264h195.22c58.352 0 90.183-36.081 90.183-80.632 0-50.934-33.956-80.632-90.194-80.632z" />
<glyph unicode="&#xe906;" glyph-name="italic" d="M385.33 752h380l-25.33-101.33h-126.67l-101.33-405.33h152l-25.33-101.33h-380l25.33 101.33h126.67l101.33 405.33h-152z" />
<glyph unicode="&#xe907;" glyph-name="list-numbers" d="M911.996 448c-0.001-26.509-21.491-47.999-48-48h-431.996c-26.51 0-48 21.49-48 48s21.49 48 48 48v0h431.996c26.509-0.001 47.999-21.491 48-48v0zM432 656h431.996c26.51 0 48 21.49 48 48s-21.49 48-48 48v0h-431.996c-26.51 0-48-21.49-48-48s21.49-48 48-48v0zM863.996 240h-432c-26.51 0-48-21.49-48-48s21.49-48 48-48v0h432c26.51 0 48 21.49 48 48s-21.49 48-48 48v0zM176 674.738v-146.715c0-26.51 21.49-48 48-48s48 21.49 48 48v0 223.977c0 0 0 0 0 0 0 26.51-21.49 48-48 48-7.824 0-15.211-1.872-21.737-5.193l0.273 0.126-64-32c-15.858-8.057-26.534-24.249-26.534-42.935 0-26.512 21.492-48.004 48.004-48.004 5.734 0 11.232 1.005 16.33 2.849l-0.334-0.106zM302.211 269.82c11.14 16.314 17.788 36.466 17.788 58.17 0 57.443-46.567 104.009-104.009 104.009-42.814 0-79.586-25.869-95.539-62.829l-0.259-0.675c-2.389-5.509-3.778-11.926-3.778-18.667 0-26.51 21.491-48.001 48.001-48.001 19.744 0 36.704 11.921 44.075 28.958l0.12 0.311c1.245 2.905 4.080 4.902 7.382 4.902 4.42 0 8.004-3.581 8.009-7.999v0c0-0.019 0-0.042 0-0.064 0-1.404-0.369-2.722-1.017-3.861l0.020 0.039-101.414-135.328c-5.987-7.92-9.59-17.932-9.59-28.786 0-26.509 21.49-47.999 47.999-47.999 0 0 0.001 0 0.001 0h112c26.51 0 48 21.49 48 48s-21.49 48-48 48v0h-16.047l44.895 59.906c0.469 0.625 0.924 1.266 1.363 1.914z" />
<glyph unicode="&#xe908;" glyph-name="microphone" d="M313.264 712.361c0 116.569 95.795 211.068 213.961 211.068s213.957-94.498 213.957-211.068v-211.069c0-116.568-95.792-211.065-213.957-211.065s-213.961 94.497-213.961 211.065v211.069zM527.225 839.002c-70.901 0-128.377-56.699-128.377-126.641v-211.069c0-69.939 57.476-126.64 128.377-126.64 70.897 0 128.373 56.7 128.373 126.64v211.069c0 69.942-57.476 126.641-128.373 126.641zM457.285 50.311c16.157 0 29.257 13.1 29.257 29.257v52.22c-178.381 19.412-320.061 159.005-340.012 334.892-2.663 23.483 16.751 42.719 40.384 42.719s42.463-19.269 45.89-42.653c20.956-142.987 145.695-252.84 296.446-252.84 150.747 0 275.489 109.853 296.444 252.84 3.427 23.384 22.257 42.653 45.89 42.653s43.048-19.237 40.386-42.719c-19.946-175.832-161.543-315.392-339.847-334.874v-52.239c0-16.157 13.1-29.257 29.257-29.257h81.58c16.157 0 29.257-13.096 29.257-29.257v-25.911c0-16.157-13.1-29.257-29.257-29.257h-305.28c-16.158 0-29.257 13.1-29.257 29.257v25.911c0 16.161 13.099 29.257 29.257 29.257h79.605z" />
<glyph unicode="&#xe909;" glyph-name="sticker" d="M910.786 405.398c0.142 0.627 0.269 1.256 0.386 1.891 0.165 0.895 0.297 1.791 0.411 2.693 0.066 0.533 0.145 1.062 0.194 1.602 0.136 1.467 0.223 2.939 0.223 4.416v192c-0.155 132.486-107.514 239.845-239.985 240h-320.015c-132.486-0.155-239.845-107.514-240-239.985v-320.015c0.155-132.486 107.514-239.845 239.985-240h192.015c1.478 0 2.949 0.088 4.417 0.223 0.538 0.051 1.066 0.129 1.6 0.195 0.902 0.113 1.8 0.246 2.694 0.41 0.635 0.117 1.264 0.244 1.889 0.385 0.773 0.176 1.538 0.379 2.303 0.592 0.652 0.184 1.307 0.355 1.947 0.564 0.109 0.035 0.222 0.059 0.33 0.096 110.508 36.836 313.52 239.848 350.355 350.355 0.036 0.109 0.060 0.221 0.096 0.33 0.208 0.641 0.382 1.295 0.564 1.949 0.213 0.764 0.416 1.527 0.591 2.299zM208 288v320c0.092 79.492 64.508 143.908 143.991 144h320.009c79.492-0.092 143.908-64.508 144-143.991v-144.009h-80c-132.486-0.155-239.845-107.514-240-239.985v-80.015h-144c-79.492 0.092-143.908 64.508-144 143.991v0.009zM592 177.498v46.502c0.092 79.492 64.508 143.908 143.991 144h46.512c-46.628-64.432-126.071-143.875-190.503-190.502z" />
<glyph unicode="&#xe90a;" glyph-name="emoji" d="M512 880c-238.587 0-432-193.413-432-432s193.413-432 432-432c238.587 0 432 193.413 432 432v0c-0.278 238.475-193.525 431.722-431.973 432h-0.027zM512 112c-185.568 0-336 150.432-336 336s150.432 336 336 336c185.568 0 336-150.432 336-336v0c-0.217-185.48-150.52-335.783-335.979-336h-0.021zM304 528c0 35.346 28.654 64 64 64s64-28.654 64-64c0-35.346-28.654-64-64-64v0c-35.346 0-64 28.654-64 64v0zM592 528c0 35.346 28.654 64 64 64s64-28.654 64-64c0-35.346-28.654-64-64-64v0c-35.346 0-64 28.654-64 64v0zM719.871 327.979c-42.287-72.233-119.503-119.979-207.871-119.979s-165.582 47.745-207.256 118.845l-0.613 1.132c-4.054 6.892-6.449 15.183-6.449 24.032 0 26.51 21.49 48 48 48 17.66 0 33.093-9.537 41.428-23.742l0.123-0.226c25.371-43.371 71.722-72.041 124.768-72.041s99.398 28.671 124.401 71.363l0.368 0.68c8.458 14.431 23.891 23.968 41.551 23.968 26.51 0 48-21.49 48-48 0-8.85-2.395-17.14-6.572-24.258l0.123 0.226z" />
<glyph unicode="&#xe90b;" glyph-name="gif" d="M128 661.333h256v-85.333h-256v-256h170.667v85.333h-85.333v85.333h170.667v-256h-341.333v426.667h85.333zM725.333 661.333h256v-85.333h-256v-85.333h170.667v-85.333h-170.667v-170.667h-85.333v426.667h85.333zM554.667 661.333h-85.333v-426.667h85.333v426.667z" />
<glyph unicode="&#xe90c;" glyph-name="underline" d="M512 256q-106 0-180 74-76 76-76 182v288h128v-288q0-54 38-92 36-36 90-36t92 36q36 38 36 92v288h128v-288q0-106-74-182-76-74-182-74zM256 192h512v-96h-512v96z" />
<glyph unicode="&#xe90d;" glyph-name="complaints" d="M904.368 831.172l-26.24 5.248c-120.396 24.078-237.118 64.132-347.052 119.078-12.008 6.002-26.142 6.002-38.15 0-109.97-54.964-226.654-95.006-347.050-119.078l-26.242-5.248c-19.944-3.988-34.298-21.5-34.298-41.838v-157.098c0-183.904 73.062-360.302 203.088-490.33l193.408-193.408c16.662-16.662 43.678-16.662 60.34 0l193.408 193.408c130.028 130.028 203.088 306.426 203.088 490.33v157.098c-0.002 20.338-14.356 37.848-34.3 41.838zM853.334 632.234c0-161.272-64.072-315.966-178.096-429.99l-163.238-163.238-163.238 163.238c-114.024 114.024-178.096 268.718-178.096 429.99v122.144c118.052 24.292 232.672 63.064 341.334 115.428 108.636-52.348 223.284-91.128 341.334-115.428v-122.144zM494.99 768.124c-67.496-29.36-136.896-53.892-207.646-73.384-18.51-5.1-31.334-21.934-31.334-41.134v-21.376c0-139.586 54.426-270.972 153.134-369.632l72.688-72.73c26.874-26.89 72.846-7.858 72.846 30.162v508.968c-0.002 30.73-31.51 51.384-59.688 39.126zM469.342 323.076c-80.082 80.114-125.176 185.56-127.872 298.402 43.176 12.83 85.838 27.446 127.872 43.806v-342.208z" />
<glyph unicode="&#xe90e;" glyph-name="groups" d="M111.531 872.235c-9.351-2.542-16.968-8.642-21.456-16.719l-0.090-0.177-3.797-7.125v-331.093l4.267-7.595c4.693-8.405 12.544-14.507 21.973-17.109 8.448-2.347 321.365-2.347 329.813 0 9.493 2.619 17.237 8.778 21.88 16.932l0.093 0.177 4.267 7.595v331.093l-3.797 7.125c-4.523 8.405-11.477 13.739-22.187 16.981-11.179 3.371-320.213 3.285-330.965-0.085zM580.864 872.235c-9.351-2.542-16.968-8.642-21.456-16.719l-0.090-0.177-3.797-7.125v-331.093l4.267-7.595c4.693-8.405 12.544-14.507 21.973-17.109 8.448-2.347 321.365-2.347 329.813 0 9.493 2.619 17.237 8.778 21.88 16.932l0.093 0.177 4.267 7.595v331.093l-3.797 7.125c-4.523 8.405-11.477 13.739-22.187 16.981-11.179 3.371-320.213 3.285-330.965-0.085zM384 682.667v-106.667h-213.333v213.333h213.333v-106.667zM853.333 682.667v-106.667h-213.333v213.333h213.333v-106.667zM111.531 402.901c-9.351-2.542-16.968-8.642-21.456-16.719l-0.090-0.177-3.797-7.125v-331.093l4.267-7.595c4.693-8.405 12.544-14.507 21.973-17.109 8.448-2.347 321.365-2.347 329.813 0 9.493 2.619 17.237 8.778 21.88 16.932l0.093 0.177 4.267 7.595v331.093l-3.797 7.125c-4.523 8.405-11.477 13.739-22.187 16.981-11.179 3.371-320.213 3.285-330.965-0.085zM580.864 402.901c-9.351-2.542-16.968-8.642-21.456-16.719l-0.090-0.177-3.797-7.125v-331.093l4.267-7.595c4.693-8.405 12.544-14.507 21.973-17.109 8.448-2.347 321.365-2.347 329.813 0 9.493 2.619 17.237 8.778 21.88 16.932l0.093 0.177 4.267 7.595v331.093l-3.797 7.125c-4.523 8.405-11.477 13.739-22.187 16.981-11.179 3.371-320.213 3.285-330.965-0.085zM384 213.333v-106.667h-213.333v213.333h213.333v-106.667zM853.333 213.333v-106.667h-213.333v213.333h213.333v-106.667z" />
<glyph unicode="&#xe90f;" glyph-name="search" d="M991.284 27.298l-243.714 253.474c62.663 74.491 96.997 168.216 96.997 265.788 0 227.967-185.473 413.44-413.44 413.44s-413.44-185.473-413.44-413.44 185.473-413.44 413.44-413.44c85.582 0 167.137 25.813 236.865 74.815l245.565-255.398c10.264-10.66 24.069-16.538 38.863-16.538 14.003 0 27.287 5.339 37.371 15.046 21.427 20.618 22.11 54.808 1.492 76.253zM431.128 852.146c168.504 0 305.586-137.082 305.586-305.586s-137.082-305.586-305.586-305.586-305.586 137.082-305.586 305.586 137.082 305.586 305.586 305.586z" />
<glyph unicode="&#xe910;" glyph-name="list" d="M737.28 499.2h-296.96c-28.262 0-30.72-22.886-30.72-51.2s2.458-51.2 30.72-51.2h296.96c28.262 0 30.72 22.886 30.72 51.2s-2.458 51.2-30.72 51.2zM839.68 243.2h-399.36c-28.262 0-30.72-22.886-30.72-51.2s2.458-51.2 30.72-51.2h399.36c28.262 0 30.72 22.886 30.72 51.2s-2.458 51.2-30.72 51.2zM440.32 652.8h399.36c28.262 0 30.72 22.886 30.72 51.2s-2.458 51.2-30.72 51.2h-399.36c-28.262 0-30.72-22.886-30.72-51.2s2.458-51.2 30.72-51.2zM276.48 499.2h-92.16c-28.262 0-30.72-22.886-30.72-51.2s2.458-51.2 30.72-51.2h92.16c28.262 0 30.72 22.886 30.72 51.2s-2.458 51.2-30.72 51.2zM276.48 243.2h-92.16c-28.262 0-30.72-22.886-30.72-51.2s2.458-51.2 30.72-51.2h92.16c28.262 0 30.72 22.886 30.72 51.2s-2.458 51.2-30.72 51.2zM276.48 755.2h-92.16c-28.262 0-30.72-22.886-30.72-51.2s2.458-51.2 30.72-51.2h92.16c28.262 0 30.72 22.886 30.72 51.2s-2.458 51.2-30.72 51.2z" />
<glyph unicode="&#xe911;" glyph-name="monitor" d="M998.243 897.917h-972.465c-14.221 0-25.778-11.568-25.778-25.778v-681.385c0-14.2 11.568-25.778 25.778-25.778h972.465c14.21 0 25.768 11.579 25.768 25.778v681.374c0.011 14.221-11.547 25.789-25.768 25.789zM946.676 242.321h-869.33v578.239h869.33v-578.239zM698.936 81.862h-51.567v47.282c0 7.121-5.789 12.889-12.9 12.889h-244.926c-7.121 0-12.889-5.768-12.889-12.889v-47.282h-51.567c-7.121 0-12.889-5.768-12.889-12.878v-58.012c0-7.121 5.779-12.889 12.889-12.889h373.85c7.111 0 12.878 5.768 12.878 12.889v58.012c0 7.111-5.768 12.878-12.878 12.878zM164.369 755.095c-11.858 0-21.482-9.624-21.482-21.482v-179.073l200.544 200.555h-179.063z" />
<glyph unicode="&#xe912;" glyph-name="music" d="M944 540.8c-6.4 38.4-28.8 70.4-64 92.8-57.6 38.4-105.6 92.8-137.6 153.6l-12.8 25.6c-6.4 12.8-22.4 19.2-35.2 16-12.8 0-22.4-12.8-22.4-28.8v-505.6c-25.6 16-60.8 25.6-96 25.6-89.6 0-160-57.6-160-128s70.4-128 160-128 160 57.6 160 128v492.8c32-38.4 67.2-73.6 108.8-102.4 19.2-12.8 32-32 35.2-54.4s0-44.8-12.8-64c-9.6-16-6.4-35.2 9.6-44.8s35.2-6.4 44.8 9.6c22.4 35.2 32 73.6 22.4 112zM320 160h-224c-19.2 0-32-12.8-32-32s12.8-32 32-32h224c19.2 0 32 12.8 32 32s-12.8 32-32 32zM320 320h-224c-19.2 0-32-12.8-32-32s12.8-32 32-32h224c19.2 0 32 12.8 32 32s-12.8 32-32 32zM96 416h448c19.2 0 32 12.8 32 32s-12.8 32-32 32h-448c-19.2 0-32-12.8-32-32s12.8-32 32-32zM96 576h448c19.2 0 32 12.8 32 32s-12.8 32-32 32h-448c-19.2 0-32-12.8-32-32s12.8-32 32-32zM96 736h448c19.2 0 32 12.8 32 32s-12.8 32-32 32h-448c-19.2 0-32-12.8-32-32s12.8-32 32-32z" />
<glyph unicode="&#xe913;" glyph-name="notifications" d="M866.56 355.413l-18.56 14.933c-9.783 7.879-15.991 19.854-16 33.279v172.374c-0.054 154.721-109.903 283.769-255.863 313.464l-2.057 0.35c-7.352 27.834-32.305 48.022-61.973 48.022s-54.621-20.187-61.873-47.575l-0.101-0.447c-148.108-29.957-258.059-159.034-258.133-313.805v-172.381c-0.009-13.426-6.217-25.401-15.918-33.216l-0.082-0.064-18.56-14.933c-43.954-35.352-71.902-89.058-72.107-149.299v-35.448c0-47.128 38.205-85.333 85.333-85.333v0h176.213c19.939-73.742 86.245-127.104 165.013-127.104s145.074 53.362 164.737 125.909l0.276 1.195h176.427c47.128 0 85.333 38.205 85.333 85.333v0 34.987c-0.067 60.435-28.045 114.321-71.735 149.471l-0.372 0.289zM512 42.667c-31.22 0.194-58.443 17.125-73.169 42.264l-0.218 0.403h146.987c-14.979-25.602-42.297-42.553-73.584-42.667h-0.016zM853.333 170.667h-682.667v34.987c0.049 33.582 15.61 63.52 39.899 83.039l0.208 0.161 18.56 14.933c29.348 23.638 47.974 59.561 48 99.836v172.377c0 129.603 105.064 234.667 234.667 234.667s234.667-105.064 234.667-234.667v0-172.373c0-0.040 0-0.086 0-0.133 0-40.309 18.632-76.266 47.754-99.728l0.246-0.192 18.56-14.933c24.443-19.637 39.988-49.484 40.107-82.967v-0.020z" />
<glyph unicode="&#xe914;" glyph-name="online" d="M521.192 840.781c80.936 0 142.831-61.892 142.831-142.831s-61.892-142.831-142.831-142.831-142.831 61.892-142.831 142.831 66.653 142.831 142.831 142.831zM521.192 936c-133.308 0-238.050-104.742-238.050-238.050s104.742-238.050 238.050-238.050 238.050 104.742 238.050 238.050-104.742 238.050-238.050 238.050zM411.689-40h-247.57c-71.414 0-128.547 57.13-128.547 133.308v80.936c0 119.025 95.219 214.244 214.244 214.244h452.292c28.567 0 47.611-19.044 47.611-47.611s-19.044-47.611-47.611-47.611h-452.292c-66.653 0-119.025-57.13-119.025-119.025v-85.697c0-19.044 14.283-38.089 33.328-38.089h247.57c28.567 0 47.611-19.044 47.611-47.611s-19.044-42.85-47.611-42.85zM973.486 240.897c-19.044 19.044-47.611 19.044-66.653 0l-166.633-166.633-104.742 99.981c-19.044 19.044-47.611 19.044-66.653 0s-19.044-47.611 0-66.653l133.308-133.308s4.761-4.761 9.522-4.761 4.761-4.761 9.522-4.761h38.089c4.761 0 4.761 4.761 9.522 4.761s4.761 4.761 9.522 4.761l199.961 199.961c14.283 19.044 14.283 47.611-4.761 66.653z" />
<glyph unicode="&#xe915;" glyph-name="settings" d="M983.162 574.844l-111.835 13.828c-1.838 4.702-3.768 9.364-5.784 13.986l69.296 88.855c14.454 18.534 12.824 44.928-3.798 61.546l-114.055 113.991c-16.616 16.608-43.004 18.228-61.526 3.786l-88.823-69.268c-4.624 2.016-9.288 3.948-13.988 5.788l-13.83 111.807c-2.886 23.32-22.696 40.83-46.194 40.83h-161.273c-23.496 0-43.312-17.51-46.194-40.832l-13.828-111.807c-4.698-1.838-9.362-3.768-13.976-5.78l-88.829 69.284c-18.522 14.444-44.916 12.828-61.536-3.788l-114.041-114.017c-16.62-16.614-18.246-43.012-3.792-61.542l69.288-88.833c-2.024-4.624-3.956-9.294-5.8-14.004l-111.811-13.828c-23.318-2.888-40.832-22.698-40.832-46.196v-161.279c0-23.5 17.516-43.316 40.842-46.194l111.801-13.806c1.838-4.704 3.768-9.372 5.788-13.988l-69.282-88.833c-14.448-18.528-12.822-44.92 3.788-61.534l114.041-114.061c16.614-16.62 43.014-18.242 61.546-3.792l88.833 69.296c4.612-2.014 9.276-3.948 13.974-5.782l13.828-111.841c2.882-23.32 22.696-40.832 46.194-40.832h161.273c23.496 0 43.31 17.51 46.194 40.832l13.83 111.839c4.702 1.84 9.364 3.77 13.986 5.784l88.849-69.3c18.532-14.45 44.926-12.828 61.542 3.796l114.029 114.061c16.614 16.616 18.234 43.008 3.786 61.536l-69.282 88.817c2.024 4.626 3.956 9.294 5.796 14.004l111.801 13.806c23.322 2.88 40.842 22.696 40.842 46.194v161.279c-0.006 23.496-17.52 43.306-40.838 46.192zM930.905 408.523l-99.727-12.316c-18.302-2.262-33.544-15.112-38.862-32.772-5.626-18.674-13.12-36.774-22.276-53.806-8.734-16.248-7.050-36.126 4.294-50.67l61.796-79.226-55.848-55.864-79.242 61.81c-14.538 11.336-34.404 13.026-50.654 4.3-17.026-9.144-35.13-16.638-53.81-22.268-17.654-5.322-30.5-20.558-32.762-38.854l-12.338-99.765h-78.984l-12.334 99.765c-2.262 18.292-15.102 33.526-32.75 38.85-18.734 5.65-36.834 13.142-53.798 22.264-16.244 8.738-36.122 7.054-50.672-4.294l-79.23-61.804-55.854 55.87 61.794 79.236c11.342 14.546 13.026 34.412 4.294 50.656-9.136 17.002-16.63 35.108-22.274 53.822-5.324 17.65-20.564 30.494-38.86 32.752l-99.721 12.312v78.984l99.731 12.334c18.292 2.262 33.526 15.102 38.846 32.75 5.648 18.712 13.144 36.812 22.286 53.8 8.748 16.248 7.066 36.134-4.286 50.684l-61.806 79.24 55.848 55.836 79.24-61.804c14.546-11.344 34.418-13.026 50.67-4.292 16.986 9.13 35.082 16.62 53.792 22.264 17.65 5.324 30.494 20.558 32.756 38.854l12.332 99.733h78.988l12.338-99.737c2.266-18.296 15.114-33.534 32.768-38.854 18.656-5.622 36.758-13.114 53.804-22.27 16.244-8.728 36.11-7.044 50.65 4.298l79.232 61.788 55.854-55.824-61.794-79.236c-11.332-14.534-13.026-34.382-4.316-50.622 9.16-17.080 16.656-35.198 22.276-53.846 5.322-17.65 20.558-30.496 38.854-32.762l99.755-12.338v-78.978zM511.991 649.696c-111.211 0-201.689-90.487-201.689-201.711 0-111.205 90.477-201.677 201.689-201.677 111.217 0 201.703 90.471 201.703 201.677 0 111.223-90.485 201.711-201.703 201.711zM511.991 339.398c-59.882 0-108.599 48.712-108.599 108.587 0 59.894 48.718 108.621 108.599 108.621 59.888 0 108.611-48.726 108.611-108.621 0-59.876-48.724-108.587-108.611-108.587z" />
<glyph unicode="&#xe916;" glyph-name="storage" d="M981.303 533.347h-42.663v127.992c0 23.562-19.101 42.663-42.663 42.663h-85.329v42.663c0 11.315-4.496 22.167-12.495 30.168l-170.657 170.657c-8.001 8.001-18.853 12.495-30.168 12.495h-383.975c-23.562 0-42.663-19.101-42.663-42.663v-85.329h-127.992c-23.562 0-42.663-19.101-42.663-42.663v-809.428c-0.056-1.886 0.002-3.756 0.194-5.6 0-0.008 0.002-0.016 0.002-0.024 0.090-0.852 0.204-1.698 0.344-2.538 2.412-16.543 13.297-27.798 26.57-32.786 0.206-0.080 0.416-0.156 0.624-0.234 0.52-0.186 1.034-0.378 1.56-0.546 2.070-0.678 4.218-1.196 6.43-1.554 0.086-0.014 0.172-0.026 0.26-0.040 0.902-0.14 1.816-0.252 2.74-0.336 0.358-0.034 0.714-0.072 1.072-0.098 0.258-0.016 0.52-0.022 0.778-0.034 1.172-0.066 2.344-0.088 3.516-0.064h766.525c18.363 0 34.668 11.751 40.475 29.172l170.655 511.967c9.207 27.63-11.355 56.158-40.475 56.158zM853.311 618.676v-85.329h-42.663v85.329h42.663zM256.015 874.66h323.639l145.665-145.665v-195.647h-469.304v341.312zM85.36 746.668h85.329v-249.060l-85.329-255.984v505.043zM779.898 21.38h-678.008l142.213 426.639h678.006l-142.211-426.639zM384.007 704.004h213.32c23.562 0 42.663 19.101 42.663 42.663s-19.101 42.663-42.663 42.663h-213.32c-23.562 0-42.663-19.101-42.663-42.663s19.101-42.663 42.663-42.663zM384.007 576.013h213.32c23.562 0 42.663 19.101 42.663 42.663s-19.101 42.663-42.663 42.663h-213.32c-23.562 0-42.663-19.101-42.663-42.663s19.101-42.663 42.663-42.663z" />
<glyph unicode="&#xe917;" glyph-name="translate" d="M907.090 844.8h-790.185c-64.466 0-116.905-52.444-116.905-116.905v-559.785c0-64.461 52.444-116.905 116.905-116.905h790.185c64.461 0 116.91 52.444 116.91 116.905v559.785c0 64.461-52.449 116.905-116.91 116.905zM512 112.64h-395.095c-30.582 0-55.465 24.878-55.465 55.465v559.79c0 30.587 24.883 55.465 55.465 55.465h395.095v-670.72zM934.81 570.22c-2.801-46.822-29.020-139.576-106.849-204.006 23.629-5.233 49.3-8.054 76.39-8.054v-61.44c-54.021 0-103.619 9.825-145.761 27.264-39.368-16.901-86.881-27.264-144-27.264v61.44c26.276 0 50.811 2.565 73.554 7.67-43.069 35.922-68.516 83.512-68.516 137.114h61.435c0-45.348 28.979-84.567 76.206-110.71 23.762 13.619 44.554 31.293 62.28 52.997 28.815 35.256 43.53 74.348 49.94 102.615h-254.899v61.44h114.161v61.368h61.44v-61.373h107.802c10.168 0 19.978-4.255 26.921-11.674 6.856-7.265 10.496-17.28 9.897-27.387zM220.339 354.499l-22.784-57.641h-81.772l134.938 312.781h81.772l131.82-312.781h-84.905l-22.339 57.641h-136.73zM289.152 530.555l-45.578-115.732h90.26l-44.682 115.732z" />
<glyph unicode="&#xe918;" glyph-name="users" d="M689.1 447.3c-17.1 0-34.3 12.9-42.9 30-8.6 21.4 8.6 47.1 30 51.4 47.1 12.9 81.4 51.4 94.3 94.3 17.1 68.6-25.7 141.4-94.3 158.6-21.4 4.3-38.6 30-30 51.4 4.3 21.4 30 38.6 51.4 30 111.4-25.7 184.3-145.7 154.3-261.5-21.4-77.2-81.4-132.9-154.3-154.3h-8.5zM374 870.9c-117.7 0-213.1-95.4-213.1-213.1s95.4-213 213.1-213 213.1 95.4 213.1 213.1-95.4 213-213.1 213zM374 536.9c-66.8 0-121 54.1-121 120.9s54.2 121 121 121 120.9-54.1 120.9-120.9-54.1-121-120.9-121zM552.8 359.1h-345.5c-114 0-207.3-93.3-207.3-207.3v-80.6c0-25.3 20.7-46.1 46.1-46.1s46.1 20.6 46.1 46.1v92.1c0 57.2 46.4 103.7 103.7 103.7h368.6c57.2 0 103.7-46.4 103.7-103.7v-92.1c0-25.4 20.6-46.1 46.1-46.1 25.3 0 46.1 20.7 46.1 46.1v80.6c-0.2 114-93.5 207.3-207.6 207.3zM825.1 358.9c-1.4 0.1-2.7 0.2-4.1 0.2-25.4 0-46.1-20.6-46.1-46.1 0-25.4 20.6-46.1 46.1-46.1h7.2c57.2 0 103.7-46.4 103.7-103.7v-92.1c0-25.4 20.6-46.1 46.1-46.1 25.3 0 46.1 20.7 46.1 46.1v80.6c-0.1 111.3-88.8 202.7-199 207.2z" />
<glyph unicode="&#xe919;" glyph-name="arrow-down" d="M511.999 188.146c-16.34 0-32.678 6.239-45.134 18.692l-392.021 392.025c-24.937 24.937-24.937 65.37 0 90.297 24.929 24.929 65.351 24.929 90.29 0l346.864-346.887 346.867 346.873c24.937 24.929 65.358 24.929 90.284 0 24.95-24.929 24.95-65.36 0-90.297l-392.014-392.025c-12.463-12.455-28.801-18.679-45.134-18.679z" />
<glyph unicode="&#xe91a;" glyph-name="arrow-left" d="M238.386 448.001c0 17.204 6.57 34.41 19.68 47.526l412.781 412.777c26.257 26.257 68.832 26.257 95.077 0 26.249-26.249 26.249-68.811 0-95.070l-365.251-365.232 365.241-365.235c26.249-26.257 26.249-68.818 0-95.065-26.249-26.27-68.82-26.27-95.077 0l-412.781 412.77c-13.111 13.123-19.667 30.329-19.667 47.526z" />
<glyph unicode="&#xe91b;" glyph-name="close" d="M240.932 785.48c-18.334 18.334-48.057 18.334-66.388 0s-18.335-48.057 0-66.388l271.089-271.088-271.087-271.087c-18.335-18.333-18.335-48.058 0-66.387s48.057-18.333 66.388 0l271.086 271.087 271.087-271.087c18.333-18.333 48.058-18.333 66.387 0s18.333 48.058 0 66.387l-271.087 271.087 271.087 271.088c18.338 18.334 18.338 48.057 0 66.388-18.333 18.334-48.054 18.334-66.387 0l-271.087-271.089-271.089 271.089z" />
<glyph unicode="&#xe91c;" glyph-name="selection" d="M111.531 872.235c-9.351-2.542-16.968-8.642-21.456-16.719l-0.090-0.177-3.797-7.125v-331.093l4.267-7.595c4.693-8.405 12.544-14.507 21.973-17.109 8.448-2.347 321.365-2.347 329.813 0 9.493 2.619 17.237 8.778 21.88 16.932l0.093 0.177 4.267 7.595v331.093l-3.797 7.125c-4.523 8.405-11.477 13.739-22.187 16.981-11.179 3.371-320.213 3.285-330.965-0.085zM580.864 829.568c-9.351-2.542-16.968-8.642-21.456-16.719l-0.090-0.177c-3.157-5.931-3.797-9.856-3.797-23.339 0-14.123 0.555-17.195 4.267-23.808 4.693-8.405 12.544-14.507 21.973-17.109 8.448-2.347 321.365-2.347 329.813 0 9.493 2.619 17.237 8.778 21.88 16.932l0.093 0.177c3.712 6.656 4.267 9.643 4.224 23.808-0.043 18.475-3.456 27.52-12.843 34.176-12.075 8.619-9.771 8.491-178.944 8.363-124.715-0.085-159.531-0.555-165.12-2.304zM384 682.667v-106.667h-213.333v213.333h213.333v-106.667zM580.864 616.235c-9.351-2.542-16.968-8.642-21.456-16.719l-0.090-0.177c-3.157-5.931-3.797-9.856-3.797-23.339 0-14.123 0.555-17.195 4.267-23.808 4.693-8.405 12.544-14.507 21.973-17.109 8.448-2.347 321.365-2.347 329.813 0 9.493 2.619 17.237 8.778 21.88 16.932l0.093 0.177c3.712 6.656 4.267 9.643 4.224 23.808-0.043 18.475-3.456 27.52-12.843 34.176-12.075 8.619-9.771 8.491-178.944 8.363-124.715-0.085-159.531-0.555-165.12-2.304zM111.531 402.901c-9.351-2.542-16.968-8.642-21.456-16.719l-0.090-0.177-3.797-7.125v-331.093l4.267-7.595c4.693-8.405 12.544-14.507 21.973-17.109 8.448-2.347 321.365-2.347 329.813 0 9.493 2.619 17.237 8.778 21.88 16.932l0.093 0.177 4.267 7.595v331.093l-3.797 7.125c-4.523 8.405-11.477 13.739-22.187 16.981-11.179 3.371-320.213 3.285-330.965-0.085zM580.864 360.235c-9.351-2.542-16.968-8.642-21.456-16.719l-0.090-0.177c-3.157-5.931-3.797-9.856-3.797-23.339 0-14.123 0.555-17.195 4.267-23.808 4.693-8.405 12.544-14.507 21.973-17.109 8.448-2.347 321.365-2.347 329.813 0 9.493 2.619 17.237 8.778 21.88 16.932l0.093 0.177c3.712 6.656 4.267 9.643 4.224 23.808-0.043 18.475-3.456 27.52-12.843 34.176-12.075 8.619-9.771 8.491-178.944 8.363-124.715-0.085-159.531-0.555-165.12-2.304zM384 213.333v-106.667h-213.333v213.333h213.333v-106.667zM580.864 146.901c-9.351-2.542-16.968-8.642-21.456-16.719l-0.090-0.177c-3.157-5.931-3.797-9.856-3.797-23.339 0-14.123 0.555-17.195 4.267-23.808 4.693-8.405 12.544-14.507 21.973-17.109 8.448-2.347 321.365-2.347 329.813 0 9.493 2.619 17.237 8.778 21.88 16.932l0.093 0.177c3.712 6.656 4.267 9.643 4.224 23.808-0.043 18.475-3.456 27.52-12.843 34.176-12.075 8.619-9.771 8.491-178.944 8.363-124.715-0.085-159.531-0.555-165.12-2.304z" />
<glyph unicode="&#xe91d;" glyph-name="plus" d="M469.333 490.667v256h85.333v-256h256v-85.333h-256v-256h-85.333v256h-256v85.333z" />
<glyph unicode="&#xe91e;" glyph-name="arrow-right" d="M785.614 447.999c0-17.204-6.57-34.41-19.68-47.526l-412.781-412.777c-26.257-26.257-68.832-26.257-95.077 0-26.249 26.249-26.249 68.811 0 95.070l365.251 365.232-365.241 365.235c-26.249 26.257-26.249 68.818 0 95.065 26.249 26.27 68.82 26.27 95.077 0l412.781-412.77c13.111-13.123 19.667-30.329 19.667-47.526z" />
<glyph unicode="&#xe91f;" glyph-name="three-dots" d="M630.154 54.154c0-65.254-52.9-118.154-118.154-118.154s-118.154 52.9-118.154 118.154v0c0 65.254 52.9 118.154 118.154 118.154s118.154-52.9 118.154-118.154v0zM630.154 448c0-65.254-52.9-118.154-118.154-118.154s-118.154 52.9-118.154 118.154v0c0 65.254 52.9 118.154 118.154 118.154s118.154-52.9 118.154-118.154v0zM630.154 841.846c0-65.254-52.9-118.154-118.154-118.154s-118.154 52.9-118.154 118.154v0c0 65.254 52.9 118.154 118.154 118.154s118.154-52.9 118.154-118.154v0z" />
<glyph unicode="&#xe920;" glyph-name="three-dots-2" d="M149.017 299.035c82.259 0 148.914 66.655 148.914 148.914s-66.655 148.914-148.914 148.914c-82.362 0.103-149.017-66.551-149.017-148.81s66.655-149.017 149.017-149.017zM149.017 519.873c39.579 0 71.822-32.242 71.822-71.822s-32.242-71.822-71.822-71.822-71.822 32.241-71.822 71.822c0 39.579 32.139 71.822 71.822 71.822zM363.138 448.052c0-82.259 66.655-148.914 148.914-148.914s148.914 66.655 148.914 148.914c0 82.259-66.655 148.914-148.914 148.914s-148.914-66.655-148.914-148.914zM583.873 448.052c0-39.58-32.242-71.822-71.822-71.822s-71.822 32.241-71.822 71.822c0 39.579 32.242 71.822 71.822 71.822s71.822-32.242 71.822-71.822zM875.086 596.965c-82.259 0-148.914-66.655-148.914-148.914s66.655-148.914 148.914-148.914c82.259 0 148.914 66.655 148.914 148.914 0.103 82.259-66.551 148.914-148.914 148.914zM875.086 376.23c-39.579 0-71.822 32.241-71.822 71.822 0 39.579 32.242 71.822 71.822 71.822s71.822-32.242 71.822-71.822c0-39.58-32.139-71.822-71.822-71.822z" />
<glyph unicode="&#xe921;" glyph-name="arrow-up" d="M512.001 707.854c16.34 0 32.678-6.239 45.134-18.692l392.021-392.025c24.937-24.937 24.937-65.37 0-90.297-24.929-24.929-65.351-24.929-90.29 0l-346.864 346.887-346.867-346.873c-24.937-24.929-65.358-24.929-90.284 0-24.95 24.929-24.95 65.36 0 90.297l392.014 392.025c12.463 12.455 28.801 18.679 45.134 18.679z" />
<glyph unicode="&#xe922;" glyph-name="modules" d="M504.128 894.976c-8.855-2.624-16.492-5.801-23.704-9.669l0.664 0.325c-26.88-13.504-392.064-203.52-397.056-206.656-21.12-13.12-27.2-33.472-16.832-56.256 2.624-5.76 7.552-13.184 11.008-16.576 8.32-8.064 409.728-217.024 424-220.672 2.916-1.064 6.282-1.68 9.792-1.68s6.876 0.616 9.997 1.745l-0.205-0.065c12.352 3.136 416.064 212.8 425.664 220.992 7.253 6.236 12.388 14.753 14.291 24.43l0.045 0.274c2.304 12.48-6.592 34.56-17.792 44.032-5.888 5.056-399.296 210.88-414.912 217.088-5.035 2.15-10.892 3.399-17.042 3.399-2.799 0-5.537-0.259-8.193-0.754l0.275 0.043zM652.544 720.832c76.16-39.552 142.208-73.984 146.752-76.544l8.256-4.672-146.624-76.16c-80.576-41.92-147.648-76.224-148.928-76.224-2.816 0-295.68 152-294.72 152.96-18.929-4.824 77.53 45.985 174.419 96.078l120.045 56.434c1.28 0 64.64-32.32 140.8-71.872zM95.552 496.32c-17.728-6.336-36.288-38.208-33.408-57.472 1.472-9.472 8.256-19.84 17.536-26.688 7.36-5.376 403.776-212.16 416.576-217.28 4.682-1.764 10.094-2.785 15.744-2.785s11.062 1.021 16.061 2.889l-0.317-0.104c12.8 5.12 409.216 211.904 416.576 217.28 8.798 6.321 15.111 15.619 17.482 26.396l0.054 0.292c2.304 15.552-10.944 43.2-25.344 52.8-6.186 3.631-13.624 5.776-21.563 5.776-4.784 0-9.386-0.779-13.686-2.216l0.304 0.088c-4.032-1.408-93.312-47.232-198.4-101.888l-191.168-99.328-191.168 99.328c8.596-1.193-56.137 32.677-121.174 66.037l-76.394 35.595c-5.039 1.396-10.825 2.199-16.799 2.199-3.855 0-7.632-0.334-11.303-0.975l0.391 0.056zM95.936 304.192c-16.256-5.184-33.728-32-33.536-51.52 0.064-12.48 4.48-21.952 14.144-30.208 9.6-8.192 413.312-217.856 425.664-220.992 2.916-1.064 6.282-1.68 9.792-1.68s6.876 0.616 9.997 1.745l-0.205-0.065c12.352 3.136 416.064 212.8 425.664 220.992 8.848 7.12 14.462 17.948 14.462 30.087 0 3.223-0.396 6.354-1.141 9.346l0.056-0.265c-5.504 20.352-19.84 38.528-33.792 42.688-3.345 1.174-7.202 1.853-11.217 1.853-5.016 0-9.784-1.059-14.094-2.965l0.223 0.088c-4.672-1.664-93.824-47.296-198.016-101.504-104.256-54.208-190.656-98.56-191.936-98.56s-87.68 44.352-191.936 98.56c-104.192 54.208-193.344 99.84-198.016 101.504-4.251 1.702-9.178 2.69-14.336 2.69-4.204 0-8.255-0.656-12.056-1.871l0.28 0.077z" />
<glyph unicode="&#xe923;" glyph-name="form-tick" d="M154.88 892.736c-9.662-3.408-17.386-10.259-21.851-19.044l-0.101-0.22-4.096-8.192v-834.56l4.16-8.32c5.236-9.703 13.938-16.968 24.409-20.209l0.295-0.079c10.112-3.072 314.496-3.072 324.608 0 17.92 5.44 27.584 18.944 29.248 40.64 1.792 24.128-5.888 40.192-23.168 48.256l-9.664 4.544-255.168 1.024v702.976h576.896v-221.76c0-240.768-0.448-229.952 9.024-242.752 5.632-7.68 19.904-13.76 34.304-14.656 17.408-1.088 30.272 2.816 39.68 12.16 13.504 13.568 12.672-5.952 12.16 279.424l-0.448 253.312-4.096 8.192c-4.566 9.005-12.29 15.856-21.682 19.181l-0.27 0.083c-9.536 3.392-704.704 3.392-714.24 0zM351.488 701.696c-18.176-4.928-27.648-15.936-30.4-35.328-3.52-24.96 4.096-44.288 21.12-53.44l6.784-3.648h163.008c155.84 0 163.264 0.128 168.96 3.2 17.792 9.472 25.536 28.544 21.952 53.952-2.24 15.872-8.32 25.088-21.056 31.552l-10.048 5.184-156.288 0.32c-119.872 0.256-158.080-0.192-164.032-1.792zM349.824 509.568c-20.224-6.272-29.248-20.224-29.184-45.376 0.064-23.36 6.144-35.2 22.208-43.072l9.6-4.672 154.368-0.512c104.768-0.32 157.248 0.128 163.2 1.344 14.916 2.731 26.832 13.284 31.469 27.169l0.083 0.287c1.146 5.452 1.801 11.716 1.801 18.133 0 0.465-0.003 0.93-0.010 1.393l0.001-0.070c0.064 22.016-6.080 34.048-21.568 42.432l-6.784 3.648-160.448 0.32c-88.256 0.192-162.368-0.32-164.736-1.024zM351.488 317.696c-18.24-4.992-27.648-15.936-30.4-35.328-3.52-24.96 4.096-44.288 21.12-53.44 6.528-3.52 9.088-3.648 69.824-4.16 67.904-0.576 73.088-0.064 84.864 8.64 7.744 5.696 13.76 19.904 14.72 34.368 1.472 23.040-6.912 40.128-23.488 47.808-7.296 3.392-10.88 3.584-68.288 3.904-44.352 0.256-62.656-0.192-68.352-1.792zM896.64 254.464c-5.44-2.56-39.36-29.632-91.008-72.64l-82.368-68.608-36.928 36.544c-40.704 40.192-46.72 44.48-62.656 44.288-11.776-0.064-21.76-4.992-33.152-16.32-12.032-11.968-17.728-24.064-16.768-35.648 0.612-5.841 1.991-11.193 4.045-16.197l-0.141 0.389c2.112-4.48 22.656-26.304 60.48-64.192 53.76-53.824 57.984-57.6 67.584-61.184 12.288-4.544 21.312-3.84 33.024 2.56 7.936 4.352 193.664 158.016 208.768 172.736 20.032 19.52 19.712 41.728-1.088 64.832-15.040 16.768-32.512 21.44-49.792 13.44z" />
<glyph unicode="&#xe924;" glyph-name="globe" d="M795.426 424.381c117.397 0 212.568-95.171 212.568-212.568 0-87.985-67.070-180.205-198.4-278.703-8.396-6.299-19.946-6.299-28.342 0-131.33 98.498-198.4 190.718-198.4 278.703 0 117.397 95.171 212.568 212.568 212.568zM512 920.425c260.926 0 472.455-211.527 472.455-472.452 0-18.488-1.062-36.73-3.135-54.666-19.63 20.103-42.493 37.033-67.755 49.956l0.026 4.71c0 32.564-3.881 64.226-11.198 94.546l-158.623-0.042c2.361-24.453 3.819-49.565 4.301-75.164-24.997-4.604-48.744-12.786-70.686-23.992l0.013 4.653c0 32.622-1.73 64.255-4.943 94.502h-320.929c-3.214-30.246-4.944-61.88-4.944-94.502 0-50.047 4.072-97.773 11.327-141.72h195.396c-8.695-22.28-14.41-46.062-16.639-70.845h-163.503c30.802-114.036 84.336-189.037 138.826-189.037 21.491 0 42.832 11.667 62.685 32.789 17.053-29.092 39.32-57.703 66.078-85.882-40.931-11.571-84.123-17.759-128.763-17.759-260.925 0-472.452 211.529-472.452 472.455s211.527 472.452 472.452 472.452zM299.823 235.392l-128.603 0.004c45.269-72.416 112.981-129.363 193.399-161.107-24.672 38.728-45.029 87.203-60.006 142.443l-4.789 18.659zM795.426 282.665c-39.131 0-70.858-31.727-70.858-70.858s31.727-70.858 70.858-70.858c39.131 0 70.858 31.727 70.858 70.858s-31.727 70.858-70.858 70.858zM280.226 542.483h-158.606l-0.227-0.814c-7.185-30.059-10.987-61.434-10.987-93.691 0-49.895 9.099-97.655 25.725-141.729l149.896 0.013c-6.719 44.833-10.286 92.462-10.286 141.716 0 32.31 1.535 63.923 4.484 94.505zM364.67 821.669l-1.079-0.414c-96.712-38.487-174.935-113.466-217.674-207.938l143.985-0.015c14.804 82.796 40.632 154.88 74.768 208.367zM512 849.573l-5.46-0.25c-59.779-5.467-117.523-100.034-144.343-235.997h299.608c-26.74 135.582-84.241 229.996-143.84 235.947l-5.965 0.3zM659.382 821.667l5.047-8.226c31.613-52.553 55.613-121.514 69.673-200.139l143.984 0.015c-40.848 90.289-114.11 162.777-204.954 202.617l-13.757 5.727z" />
<glyph unicode="&#xe925;" glyph-name="login" d="M477.876 958.14c-74.485-7.166-146.931-40.723-202.014-93.572-18.020-17.29-23.25-31.963-17.834-50.037 2.71-9.048 14.99-22.402 23.984-26.086 9.12-3.734 24.054-3.86 32.499-0.274 3.552 1.51 12.538 8.26 19.968 15 22.222 20.164 38.823 31.617 64.027 44.173 39.009 19.432 68.893 26.354 113.492 26.292 42.517-0.060 73.509-6.794 108.578-23.594 53.157-25.468 94.168-65.379 119.996-116.78 19.804-39.413 27.426-75.751 27.426-130.742v-26.52h-323.198c-352.614 0-330.294 0.616-343.526-9.478-3.094-2.36-7.756-7.912-10.358-12.338l-4.73-8.050-0.472-246.612c-0.518-270.345-0.904-258.851 9.552-284.545 12.3-30.223 38.787-56.729 68.957-69.007 25.786-10.494 7.466-9.968 347.776-9.968 340.238 0 322.004-0.522 347.718 9.948 30.031 12.23 56.779 38.963 68.979 68.943 10.374 25.494 9.97 14.080 9.958 280.717-0.006 162.613-0.596 245.814-1.774 250.054-2.638 9.498-11.688 20.214-21.214 25.124-7.842 4.040-10.428 4.4-35.399 4.904l-26.936 0.544-0.014 31.029c-0.022 47.743-4.672 79.535-17.274 118.070-49.441 151.183-198.631 248.156-358.168 232.806zM853.333 362.668v-128h-682.666v255.998h682.666v-127.998zM326.982 445.315c-9.72-3.562-17.354-9.988-22.73-19.132l-4.732-8.050-0.518-51.529c-0.568-56.521-0.026-61.041 8.688-72.465 19.92-26.118 62.983-19.468 73.483 11.348 4.184 12.274 4.184 102.086 0 114.36-7.26 21.308-32.795 33.309-54.191 25.468zM497.649 445.315c-9.72-3.562-17.354-9.988-22.73-19.132l-4.732-8.050-0.518-51.529c-0.568-56.521-0.026-61.041 8.688-72.465 19.92-26.118 62.983-19.468 73.483 11.348 4.182 12.274 4.182 102.086 0 114.36-7.26 21.308-32.795 33.309-54.191 25.468zM668.316 445.315c-9.72-3.562-17.354-9.988-22.73-19.132l-4.732-8.050-0.518-51.529c-0.568-56.521-0.028-61.041 8.686-72.465 19.922-26.118 62.985-19.468 73.485 11.348 4.182 12.274 4.182 102.086 0 114.36-7.26 21.308-32.795 33.309-54.191 25.468zM853.333 103.557c0-52.697-0.904-57.617-12.754-69.469-13.826-13.824 13.742-12.754-328.58-12.754-342.32 0-314.752-1.070-328.578 12.754-11.85 11.852-12.754 16.772-12.754 69.469v45.777h682.666v-45.777z" />
<glyph unicode="&#xe926;" glyph-name="messages" d="M230.89 888h562.221c84.723 0 153.961-66.317 158.635-149.873l0.255-9.017v-562.221c0-84.723-66.317-153.961-149.873-158.635l-9.017-0.255h-562.221c-84.723 0-153.961 66.317-158.635 149.873l-0.255 9.017v562.221c0 84.723 66.317 153.961 149.873 158.635l9.017 0.255zM332.332 325.779h-187.001v-158.89c0-44.887 34.573-81.699 78.539-85.269l7.020-0.283h562.221c44.887 0 81.699 34.573 85.269 78.539l0.283 7.020v158.89h-187.001c-16.355-80.582-85.57-141.97-169.876-146.41l-9.792-0.259c-85.411 0-157.18 58.406-177.545 137.455l-2.123 9.207zM793.11 814.669h-562.221c-44.887 0-81.699-34.573-85.269-78.539l-0.283-7.020v-330h220c18.559 0 33.901-13.796 36.335-31.69l0.334-4.972c0-60.754 49.246-110 110-110 58.223 0 105.876 45.228 109.744 102.468l0.256 7.532c0 18.559 13.796 33.901 31.69 36.335l4.972 0.334h220v330c0 44.887-34.573 81.699-78.539 85.269l-7.020 0.283zM255.331 570.221h513.331c20.249 0 36.669-16.413 36.669-36.669 0-18.559-13.796-33.901-31.69-36.335l-4.972-0.334h-513.331c-20.249 0-36.669 16.413-36.669 36.669 0 18.559 13.796 33.901 31.69 36.335l4.972 0.334zM255.331 716.89h513.331c20.249 0 36.669-16.413 36.669-36.669 0-18.559-13.796-33.901-31.69-36.335l-4.972-0.334h-513.331c-20.249 0-36.669 16.413-36.669 36.669 0 18.559 13.796 33.901 31.69 36.335l4.972 0.334z" />
<glyph unicode="&#xe927;" glyph-name="friends" d="M937.756 361.632c0.522 8.72 0.902 17.124 0.902 22.38 0 130.452-58.99 251.34-158.462 331.834-18.318 14.824-45.184 11.99-60.008-6.328s-11.99-45.184 6.328-60.008c79.66-64.462 126.808-161.082 126.808-265.5 0-0.006 0-0.012 0-0.018-94.258-0.004-170.658-76.406-170.658-170.666 0-94.262 76.404-170.666 170.666-170.666s170.668 76.404 170.668 170.666c0 63.542-34.744 118.926-86.244 148.306zM853.334 127.994c-47.134 0-85.334 38.198-85.334 85.334s38.198 85.334 85.334 85.334 85.334-38.198 85.334-85.334-38.2-85.334-85.334-85.334zM128.074 427.7c22.98-5.212 45.836 9.192 51.046 32.174 22.784 100.46 90.248 184.782 181.17 229.972 28.354-54.936 85.622-92.518 151.71-92.518 94.262 0 170.666 76.404 170.666 170.666s-76.404 170.666-170.666 170.666c-91.856 0-166.72-72.56-170.486-163.49-123.328-53.81-215.524-163.752-245.614-296.424-5.212-22.98 9.194-45.834 32.174-51.046zM512 853.326c47.134 0 85.334-38.198 85.334-85.334s-38.2-85.332-85.334-85.332c-42.242 0-77.284 30.688-84.108 70.982-0.074 0.448-0.152 0.896-0.24 1.342-0.648 4.242-0.984 8.584-0.984 13.008-0.002 47.136 38.198 85.334 85.332 85.334zM625.79 62.074c-36.136-12.79-74.45-19.4-113.806-19.4-75.202 0-146.454 24.398-204.78 68.25 21.426 28.524 34.13 63.978 34.13 102.402 0 94.262-76.404 170.666-170.666 170.666s-170.668-76.402-170.668-170.666 76.404-170.666 170.666-170.666c24.058 0 46.94 5.002 67.698 13.982 75.916-63.56 171.982-99.302 273.618-99.302 49.078 0 97.020 8.272 142.278 24.29 22.214 7.862 33.848 32.244 25.986 54.458s-32.242 33.848-54.456 25.986zM85.334 213.326c0 47.134 38.198 85.334 85.334 85.334s85.332-38.198 85.332-85.334-38.198-85.334-85.334-85.334-85.332 38.2-85.332 85.334z" />
<glyph unicode="&#xe928;" glyph-name="minus" d="M128 490.667h768v-85.333h-768z" />
</font>
</defs>
</svg>
